Полтора дня / En dag och en halv / A Day and a Half (2023) WEB-DLRip [H.264] [DVO]

Ответить на тему
 
Автор Сообщение

admin ®

Пол: Не указан

Стаж: 6 месяца 22 дня

Сообщений: 11520

Создавать темы 30-Янв-2024 17:50

[Цитировать]

Полтора дня / En dag och en halv / A Day and a Half (2023) WEB-DLRip - Производство: Швеция / Warner Bros. International Television Production Sverige
Жанр: боевик, триллер, драма
Режиссер: Фарес Фарес
Продюсер: Christina Legkova, Ханна Лундмарк, Йохан Хедман
Актеры: Фарес Фарес, Алексей Манвелов, Альма Пёвсти, Анника Халлин, Стина Экблад, Анника Лильеблад, Ричард Форсгрен, Джонатан Сэнд, Джонни Тади, Бенгт С. Карлссон
Описание:
Артан взял свою бывшую жену Луизу в заложники, чтобы воссоединиться с дочерью. Они начали дорожную экспедицию по Швеции, преследуемые полицией. Путешествие приводит к самопознанию и раскрытию эмоций, а их прошлое переплетается с настоящим. Летняя жара подчеркивает напряжение в отношениях. Поездка раскрывает скрытые чувства и уязвимые места.
Релиз от: Rip by vitolinform
Продолжительность: 01:35:57
Качество видео: WEB-DLRip
Перевод: Двуголосый любительский (Pazl Voice)
Язык озвучки: русский, шведский
Субтитры: русские, английские (full, SDH), немецкие, французские, украинские
Видео: AVC/H.264, 1024x552, ~2222 Kbps
Аудио 1: AC3, 6 ch, 384 Кbps | Русский (DVO, Pazl Voice)
Аудио 2: AC3, 6 ch, 448 Кbps | Шведский

MediaInfo:

avs [info]: 1024x552p 1:1 @ 25/1 fps (cfr)
x264 [info]: using SAR=1/1
x264 [info]: using cpu capabilities: MMX2 SSE2Fast SSSE3 SSE4.2 AVX FMA3 BMI2 AVX2
x264 [info]: profile High, level 4.1, 4:2:0, 8-bit
x264 [info]: frame I:1091 Avg QP:13.52 size: 80549
x264 [info]: frame P:28077 Avg QP:17.83 size: 25239
x264 [info]: frame B:114766 Avg QP:19.60 size: 6996
x264 [info]: consecutive B-frames: 1.4% 1.6% 5.9% 7.4% 16.3% 61.4% 3.1% 0.4% 0.7% 0.7% 1.1%
x264 [info]: mb I I16..4: 9.7% 73.4% 16.9%
x264 [info]: mb P I16..4: 1.3% 10.0% 1.0% P16..4: 42.0% 27.2% 13.6% 0.0% 0.0% skip: 5.0%
x264 [info]: mb B I16..4: 0.1% 0.8% 0.1% B16..8: 41.1% 11.1% 2.6% direct: 4.6% skip:39.7% L0:42.0% L1:49.0% BI: 9.1%
x264 [info]: 8x8 transform intra:80.7% inter:59.3%
x264 [info]: direct mvs spatial:99.5% temporal:0.5%
x264 [info]: coded y,uvDC,uvAC intra: 86.7% 74.2% 46.1% inter: 22.3% 14.7% 5.4%
x264 [info]: i16 v,h,dc,p: 29% 15% 9% 47%
x264 [info]: i8 v,h,dc,ddl,ddr,vr,hd,vl,hu: 13% 10% 8% 9% 13% 12% 12% 11% 12%
x264 [info]: i4 v,h,dc,ddl,ddr,vr,hd,vl,hu: 14% 10% 4% 9% 14% 14% 12% 11% 12%
x264 [info]: i8c dc,h,v,p: 40% 27% 18% 14%
x264 [info]: Weighted P-Frames: Y:2.4% UV:1.0%
x264 [info]: ref P L0: 48.4% 8.9% 17.1% 6.1% 5.0% 3.3% 3.1% 1.6% 1.6% 1.3% 1.3% 1.1% 1.1% 0.0% 0.0%
x264 [info]: ref B L0: 76.1% 11.1% 4.6% 2.3% 1.5% 1.2% 1.0% 0.7% 0.5% 0.5% 0.3% 0.1%
x264 [info]: ref B L1: 95.4% 4.6%
x264 [info]: kb/s:2222.39
encoded 143934 frames, 25.28 fps, 2222.39 kb/s
Final statistics
========================================================
General
Unique ID : 328810727246151082247405930757458287651 (0xF75EA47F1185C242001FB1A80170DC23)
Complete name : D:\Poltora.dnya.2023.NF.WEB-DLRip.AVC.mkv
Format : Matroska
Format version : Version 4
File size : 2.05 GiB
Duration : 1 h 35 min
Overall bit rate : 3 057 kb/s
Frame rate : 25.000 FPS
Movie name : A Day and a Half (2023) WEB-DLRip AVC _ vitolinform
Encoded date : 2023-09-09 06:09:51 UTC
Writing application : mkvmerge v79.0 ('Funeral Pyres') 64-bit
Writing library : libebml v1.4.4 + libmatroska v1.7.1
Attachments : poster.jpg / log.log
Video
ID : 1
Format : AVC
Format/Info : Advanced Video Codec
Format profile : High@L4.1
Format settings : CABAC / 13 Ref Frames
Format settings, CABAC : Yes
Format settings, Reference frames : 13 frames
Codec ID : V_MPEG4/ISO/AVC
Duration : 1 h 35 min
Bit rate : 2 222 kb/s
Width : 1 024 pixels
Height : 552 pixels
Display aspect ratio : 1.85:1
Frame rate mode : Constant
Frame rate : 25.000 FPS
Color space : YUV
Chroma subsampling : 4:2:0
Bit depth : 8 bits
Scan type : Progressive
Bits/(Pixel*Frame) : 0.157
Stream size : 1.49 GiB (73%)
Title : Полтора дня / En dag och en halv / A Day and a Half (2023)
Writing library : x264 core 164 r3107 a8b68eb
Encoding settings : cabac=1 / ref=13 / deblock=1:-3:-3 / analyse=0x3:0x113 / me=umh / subme=10 / psy=1 / psy_rd=1.00:0.05 / mixed_ref=1 / me_range=32 / chroma_me=1 / trellis=2 / 8x8dct=1 / cqm=0 / deadzone=21,11 / fast_pskip=0 / chroma_qp_offset=-3 / threads=17 / lookahead_threads=4 / sliced_threads=0 / nr=0 / decimate=0 / interlaced=0 / bluray_compat=0 / constrained_intra=0 / bframes=10 / b_pyramid=2 / b_adapt=2 / b_bias=0 / direct=3 / weightb=1 / open_gop=0 / weightp=2 / keyint=250 / keyint_min=24 / scenecut=40 / intra_refresh=0 / rc_lookahead=40 / rc=crf / mbtree=1 / crf=17.4 / qcomp=0.60 / qpmin=0 / qpmax=69 / qpstep=4 / vbv_maxrate=50000 / vbv_bufsize=62500 / crf_max=0.0 / nal_hrd=none / filler=0 / ip_ratio=1.40 / aq=1:1.00
Language : English
Default : Yes
Forced : No
Color range : Limited
Color primaries : BT.709
Transfer characteristics : BT.709
Matrix coefficients : BT.709
Audio #1
ID : 2
Format : AC-3
Format/Info : Audio Coding 3
Commercial name : Dolby Digital
Codec ID : A_AC3
Duration : 1 h 35 min
Bit rate mode : Constant
Bit rate : 384 kb/s
Channel(s) : 6 channels
Channel layout : L R C LFE Ls Rs
Sampling rate : 48.0 kHz
Frame rate : 31.250 FPS (1536 SPF)
Compression mode : Lossy
Stream size : 264 MiB (13%)
Title : DVO | Pazl Voice
Language : Russian
Service kind : Complete Main
Default : Yes
Forced : No
Audio #2
ID : 3
Format : AC-3
Format/Info : Audio Coding 3
Commercial name : Dolby Digital
Codec ID : A_AC3
Duration : 1 h 35 min
Bit rate mode : Constant
Bit rate : 448 kb/s
Channel(s) : 6 channels
Channel layout : L R C LFE Ls Rs
Sampling rate : 48.0 kHz
Frame rate : 31.250 FPS (1536 SPF)
Compression mode : Lossy
Stream size : 307 MiB (15%)
Title : Swedish
Language : Swedish
Service kind : Complete Main
Default : No
Forced : No
Text #1
ID : 4
Format : UTF-8
Codec ID : S_TEXT/UTF8
Codec ID/Info : UTF-8 Plain Text
Duration : 1 h 33 min
Bit rate : 73 b/s
Frame rate : 0.177 FPS
Count of elements : 994
Stream size : 50.6 KiB (0%)
Title : Full
Language : Russian
Default : No
Forced : No
Text #2
ID : 5
Format : UTF-8
Codec ID : S_TEXT/UTF8
Codec ID/Info : UTF-8 Plain Text
Duration : 1 h 33 min
Bit rate : 71 b/s
Frame rate : 0.176 FPS
Count of elements : 990
Stream size : 49.5 KiB (0%)
Title : Full
Language : Ukrainian
Default : No
Forced : No
Text #3
ID : 6
Format : UTF-8
Codec ID : S_TEXT/UTF8
Codec ID/Info : UTF-8 Plain Text
Duration : 1 h 30 min
Bit rate : 48 b/s
Frame rate : 0.189 FPS
Count of elements : 1020
Stream size : 32.2 KiB (0%)
Title : Full
Language : English
Default : No
Forced : No
Text #4
ID : 7
Format : UTF-8
Codec ID : S_TEXT/UTF8
Codec ID/Info : UTF-8 Plain Text
Duration : 1 h 34 min
Bit rate : 65 b/s
Frame rate : 0.229 FPS
Count of elements : 1296
Stream size : 45.1 KiB (0%)
Title : SDH
Language : English
Default : No
Forced : No
Text #5
ID : 8
Format : UTF-8
Codec ID : S_TEXT/UTF8
Codec ID/Info : UTF-8 Plain Text
Duration : 1 h 33 min
Bit rate : 45 b/s
Frame rate : 0.183 FPS
Count of elements : 1029
Stream size : 31.3 KiB (0%)
Title : Full
Language : French
Default : No
Forced : No
Text #6
ID : 9
Format : UTF-8
Codec ID : S_TEXT/UTF8
Codec ID/Info : UTF-8 Plain Text
Duration : 1 h 33 min
Bit rate : 50 b/s
Frame rate : 0.187 FPS
Count of elements : 1051
Stream size : 34.6 KiB (0%)
Title : Full
Language : German
Default : No
Forced : No
Скриншоты:
Все одноименные релизы в КлубеВремя раздачи: как минимум до появления первых 3-5 скачавших, 24/7 (мультитрекерная раздача)
[Профиль] [ЛС]
Показать сообщения:    
Ответить на тему

Текущее время: 20-Апр 18:53

Часовой пояс: UTC ± 0



Вы не можете начинать темы
Вы не можете отвечать на сообщения
Вы не можете редактировать свои сообщения
Вы не можете удалять свои сообщения
Вы не можете голосовать в опросах
Вы не можете прикреплять файлы к сообщениям
Вы не можете скачивать файлы

[  Время выполнения: 0,038 сек  |  MySQL: 0,002 сек (6%) · 3 запр.  |  GZIP выкл  |  Память: 422,29 KB / 1,76 MB / 1,38 MB  |  Лимит: 17 15 13  ]