Корабль призраков / Haunting of the Queen Mary (2023) WEB-DLRip

Ответить на тему
 
Автор Сообщение

admin ®

Пол: Не указан

Стаж: 6 месяца 22 дня

Сообщений: 11520

Создавать темы 30-Янв-2024 17:50

[Цитировать]

Корабль призраков / Haunting of the Queen Mary (2023) WEB-DLRip- Производство: США, Великобритания, BCP Asset Management, Creativity Capital, Fulwell 73
Жанр: ужасы, драма
Режиссер: Гари Шор
Актеры: Элис Ив, Нелл Хадсон, Джоэль Фрай, Тим Дауни, Уильям Шокли, Энгус Райт, Джим Пиддок, Ленни Раш, Тиффани Эштон, Дориан Лок
Описание:
Знаменитый трансатлантический лайнер «Королева Мэри» — самый зловещий корабль в истории. У судна, превосходящего по размерам «Титаник», в прошлом полно несчастных случаев и загадочных смертей. Леденящие душу события 1938 года таинственным образом переплетаются с судьбой семьи, поднявшейся на борт в наши дни. Теперь, чтобы спасти своего ребёнка, паре родителей придется познать настоящий ужас и лицом к лицу столкнуться с призраками проклятого корабля.
Возраст: 18+ (зрителям, достигшим 18 лет. запрещено для детей)
Релиз от: ELEKTRI4KA & UNIONGANG
Продолжительность: 01:59:48
Качество видео: WEB-DLRip
Перевод: Дублированный (Мосфильм-Мастер)
Язык озвучки: русский
Субтитры: отсутствуют
Видео: XviD, 704x352, ~1355 Kbps
Аудио: AC3, 6 ch, 384 Kbps

MediaInfo:

Общее
Полное имя : \Korabl.prizrakov.2023.WEB-DLRip.ELEKTRI4KA.UNIONGANG.avi
Формат : AVI
Формат/Информация : Audio Video Interleave
Настройки формата : BitmapInfoHeader / WaveFormatEx
Размер файла : 1,46 Гбайт
Продолжительность : 1 ч. 59 м.
Общий поток : 1 748 Кбит/сек
Частота кадров : 25,000 кадров/сек
Программа кодирования : VirtualDubMod 1.5.10.3 | www.virtualdub-fr.org || (build 2550/release)
Библиотека кодирования : VirtualDubMod build 2550/release
Видео
Идентификатор : 0
Формат : MPEG-4 Visual
Профиль формата : Advanced Simple@L5
Настройки формата : BVOP1 / Custom Matrix
Параметр BVOP формата : 1
Параметр QPel формата : Нет
Параметр GMC формата : Без точки перехода
Параметр матрицы формата : Выборочная
Идентификатор кодека : XVID
Идентификатор кодека/Подсказка : XviD
Продолжительность : 1 ч. 59 м.
Битрейт : 1 355 Кбит/сек
Ширина : 704 пикселя
Высота : 352 пикселя
Соотношение сторон : 2,000
Частота кадров : 25,000 кадров/сек
Цветовое пространство : YUV
Субдискретизация насыщенности : 4:2:0
Битовая глубина : 8 бит
Тип развёртки : Прогрессивная
Метод сжатия : С потерями
Бит/(Пиксели*Кадры) : 0.219
Размер потока : 1,13 Гбайт (77%)
Библиотека кодирования : XviD 67
Аудио
Идентификатор : 1
Формат : AC-3
Формат/Информация : Audio Coding 3
Коммерческое название : Dolby Digital
Идентификатор кодека : 2000
Продолжительность : 1 ч. 59 м.
Вид битрейта : Постоянный
Битрейт : 384 Кбит/сек
Каналы : 6 каналов
Channel layout : L R C LFE Ls Rs
Частота : 48,0 КГц
Частота кадров : 31,250 кадров/сек (1536 SPF)
Метод сжатия : С потерями
Размер потока : 329 Мбайт (22%)
Выравнивание : Разделение по промежуткам
Продолжительность промежутка : 40 мс. (1,00 видеокадр)
Время предзагрузки промежутка : 500 мс.
Service kind : Complete Main
Скриншоты:
Все одноименные релизы в КлубеВремя раздачи: 24/7 (мультитрекер)
[Профиль] [ЛС]
Показать сообщения:    
Ответить на тему

Текущее время: 20-Апр 20:54

Часовой пояс: UTC ± 0



Вы не можете начинать темы
Вы не можете отвечать на сообщения
Вы не можете редактировать свои сообщения
Вы не можете удалять свои сообщения
Вы не можете голосовать в опросах
Вы не можете прикреплять файлы к сообщениям
Вы не можете скачивать файлы

[  Время выполнения: 0,027 сек  |  MySQL: 0,002 сек (8%) · 3 запр.  |  GZIP выкл  |  Память: 422,29 KB / 1,72 MB / 1,32 MB  |  Лимит: 6 6 6  ]