В ожидании Дали / Esperando a Dali (2023) WEB-DL [H.264/1080p]

Ответить на тему
 
Автор Сообщение

admin ®

Пол: Не указан

Стаж: 6 месяца 22 дня

Сообщений: 11520

Создавать темы 30-Янв-2024 17:49

[Цитировать]

В ожидании Дали / Esperando a Dalí (2023) WEB-DL [H.264/1080p]- Производство: Испания, Arlong Productions, FishCorb Films, Loco Films
Жанр: мелодрама, комедия
Режиссер: Давид Пужоль
Актеры: Хосе Гарсия, Иван Массаге, Пако Тоус, Николя Казале, Клара Понсо, Поль Лопес, Вики Пенья, Варвара Бородина, Хосе Анхель Эхидо, Кристиан Стамм
Описание:
Два брата устраиваются на кухню в захудалый ресторанчик неподалеку от дома Сальвадора Дали. Ими овладевает дух творчества, свободы и любви, а молва о их кулинарных шедеврах разлетается по всей Европе. Однако Дали никак не соизволит оказать честь своим визитом. Что же им еще придумать, чтобы кумир обратил на них свое внимание?
Возраст: 18+ (зрителям, достигшим 18 лет. запрещено для детей)
Релиз от: seleZen
Продолжительность: 01:54:41
Качество видео: WEB-DL
Перевод: Дублированный (Кипарис)
Язык озвучки: Русский, Испанский
Субтитры: Русские
Видео: AVC/H.264, 1920x804, 5111 Kbps
Аудио 1: AC3, 6 ch, 384 Kbps - русский
Аудио 2: AC3, 6 ch, 384 Kbps - испанский

MediaInfo:

General
Unique ID : 267106458605366180025148916187253213987 (0xC8F2D52B9CE8BA1E2D595DBE91CC8B23)
Complete name : G:VideoGEsperando.a.Dali.2023.WEB-DL.1080p.seleZen.mkv
Format : Matroska
Format version : Version 4
File size : 4.71 GiB
Duration : 1 h 54 min
Overall bit rate : 5 881 kb/s
Frame rate : 25.000 FPS
Movie name : Esperando a Dalí 2023 from seleZen
Encoded date : 2023-09-06 22:51:37 UTC
Writing application : mkvmerge v63.0.0 ('Everything') 64-bit
Writing library : libebml v1.4.2 + libmatroska v1.6.4
Video
ID : 1
Format : AVC
Format/Info : Advanced Video Codec
Format profile : High@L4
Format settings : CABAC / 4 Ref Frames
Format settings, CABAC : Yes
Format settings, Reference : 4 frames
Codec ID : V_MPEG4/ISO/AVC
Duration : 1 h 54 min
Bit rate : 5 111 kb/s
Width : 1 920 pixels
Height : 804 pixels
Display aspect ratio : 2.40:1
Frame rate mode : Constant
Frame rate : 25.000 FPS
Color space : YUV
Chroma subsampling : 4:2:0
Bit depth : 8 bits
Scan type : Progressive
Bits/(Pixel*Frame) : 0.132
Stream size : 4.09 GiB (87%)
Language : English
Default : Yes
Forced : No
Audio #1
ID : 2
Format : AC-3
Format/Info : Audio Coding 3
Commercial name : Dolby Digital
Codec ID : A_AC3
Duration : 1 h 54 min
Bit rate mode : Constant
Bit rate : 384 kb/s
Channel(s) : 6 channels
Channel layout : L R C LFE Ls Rs
Sampling rate : 48.0 kHz
Frame rate : 31.250 FPS (1536 SPF)
Compression mode : Lossy
Stream size : 315 MiB (7%)
Language : Russian
Service kind : Complete Main
Default : Yes
Forced : Yes
Audio #2
ID : 3
Format : AC-3
Format/Info : Audio Coding 3
Commercial name : Dolby Digital
Codec ID : A_AC3
Duration : 1 h 54 min
Bit rate mode : Constant
Bit rate : 384 kb/s
Channel(s) : 6 channels
Channel layout : L R C LFE Ls Rs
Sampling rate : 48.0 kHz
Frame rate : 31.250 FPS (1536 SPF)
Compression mode : Lossy
Stream size : 315 MiB (7%)
Language : Spanish
Service kind : Complete Main
Default : No
Forced : No
Text
ID : 4
Format : UTF-8
Codec ID : S_TEXT/UTF8
Codec ID/Info : UTF-8 Plain Text
Duration : 1 h 48 min
Bit rate : 74 b/s
Frame rate : 0.224 FPS
Count of elements : 1468
Stream size : 59.7 KiB (0%)
Language : Russian
Default : No
Forced : No
Скриншоты:
Все одноименные релизы в КлубеВремя раздачи: 24/7 (мультитрекер)
[Профиль] [ЛС]
Показать сообщения:    
Ответить на тему

Текущее время: 20-Апр 19:17

Часовой пояс: UTC ± 0



Вы не можете начинать темы
Вы не можете отвечать на сообщения
Вы не можете редактировать свои сообщения
Вы не можете удалять свои сообщения
Вы не можете голосовать в опросах
Вы не можете прикреплять файлы к сообщениям
Вы не можете скачивать файлы

[  Время выполнения: 0,028 сек  |  MySQL: 0,003 сек (10%) · 3 запр.  |  GZIP выкл  |  Память: 422,29 KB / 1,71 MB / 1,32 MB  |  Лимит: 10 11 12  ]