Мегалодон / The Black Demon (2023) BDRip [H.264/1080p]

Ответить на тему
 
Автор Сообщение

admin ®

Пол: Не указан

Стаж: 6 месяца 22 дня

Сообщений: 11520

Создавать темы 30-Янв-2024 17:49

[Цитировать]

Мегалодон / The Black Demon (2023) BDRip [H.264/1080p] - Производство: США, Доминикана, Мексика / Buzzfeed Studios, Chocolatito, Diamond Films
Жанр: ужасы, фантастика, триллер
Режиссер: Адриан Грюнберг,
Актеры: Джош Лукас, Фернанда Уррехола, Хулио Седильо, Омар Чапарро, Боливар Санчес, Карлос Солорзано, Венус Эриель, Рауль Мендес, Артуро Дюверж, Луис дель Валле
Описание:
Пол и его семья собираются провести отпуск в райском местечке на побережье. К их удивлению, живописный и дружелюбный поселок покинут и разрушен. По ацтекским легендам, в местных водах обитает последний мегалодон — Черный демон. Он ревностно защищает природу от вторжения людей, уничтожая все на своем пути. Отправившись на прибрежную платформу в поисках ответов, семья оказывается в ловушке. И теперь Полу нужно найти способ спасти своих близких.
Возраст: 16+ (зрителям, достигшим 16 лет)
Рейтинг MPAA: R (лицам до 17 лет обязательно присутствие взрослого)
Продолжительность: 01:40:37
Качество видео: BDRip (1080p)
Перевод: Дублированный (Мосфильм-Мастер)
Язык озвучки: Русский, английский
Субтитры: Русские, английские (full, SDH)
Видео: AVC/H.264, 1920x960, ~12,9 Mbps
Аудио #1: AC3, 6 ch, 448 Kbps | Русский
Аудио #2: E-AC3, 6 ch, 448 Kbps | Русский
Аудио #3: AC3, 6 ch, 640 Kbps | Английский

MediaInfo:

Общее
Уникальный идентификатор : 229748392849591111971957773853483338666 (0xACD7EE52809E6B61529E02444EB40BAA)
Полное имя : D:\NNM\Мегалодон\The.Black.Demon.2023.D.BDRip.1080p.seleZen.mkv
Формат : Matroska
Версия формата : Version 4
Размер файла : 10,2 Гбайт
Продолжительность : 1 ч. 40 м.
Общий поток : 14,5 Мбит/сек
Название фильма : The Black Demon 2023 from seleZen
Дата кодирования : UTC 2023-09-07 02:54:36
Программа кодирования : mkvmerge v63.0.0 ('Everything') 64-bit
Библиотека кодирования : libebml v1.4.2 + libmatroska v1.6.4
Обложка : Yes
Attachments : cover.jpg / small_cover.jpg
Видео
Идентификатор : 1
Формат : AVC
Формат/Информация : Advanced Video Codec
Профиль формата : High@L4.1
Настройки формата : CABAC / 4 Ref Frames
Параметр CABAC формата : Да
Параметр RefFrames формата : 4 кадра
Идентификатор кодека : V_MPEG4/ISO/AVC
Продолжительность : 1 ч. 40 м.
Битрейт : 12,9 Мбит/сек
Ширина : 1 920 пикселей
Высота : 960 пикселей
Соотношение сторон : 2,000
Режим частоты кадров : Постоянный
Частота кадров : 23,976 (24000/1001) кадра/сек
Цветовое пространство : YUV
Субдискретизация насыщенности : 4:2:0
Битовая глубина : 8 бит
Тип развёртки : Прогрессивная
Бит/(Пиксели*Кадры) : 0.293
Размер потока : 9,12 Гбайт (89%)
Библиотека кодирования : x264 core 164 r3099+55M seleZen t_mod_New [(8 & 10)-bit@all X86_64]
Настройки программы : cabac=1 / ref=4 / deblock=1:-2:-2 / analyse=0x3:0x133 / me=umh / subme=10 / psy=1 / fade_compensate=0.00 / psy_rd=1.02:0.03 / mixed_ref=1 / me_range=32 / chroma_me=1 / trellis=2 / 8x8dct=1 / cqm=0 / deadzone=21,11 / fast_pskip=0 / chroma_qp_offset=-3 / threads=24 / lookahead_threads=4 / sliced_threads=0 / nr=0 / decimate=0 / interlaced=0 / bluray_compat=0 / constrained_intra=0 / fgo=0 / bframes=9 / b_pyramid=2 / b_adapt=2 / b_bias=0 / direct=1 / weightb=1 / open_gop=0 / weightp=2 / keyint=240 / keyint_min=23 / scenecut=40 / intra_refresh=0 / rc_lookahead=60 / rc=crf / mbtree=0 / crf=16.8000 / qcomp=0.60 / qpmin=0:0:0 / qpmax=51:51:51 / qpstep=4 / vbv_maxrate=50000 / vbv_bufsize=62500 / crf_max=0.0 / nal_hrd=none / filler=0 / ip_ratio=1.40 / pb_ratio=1.30 / aq=3:0.80 / aq-sensitivity=10.00 / aq-factor=1.00:1.00:1.00 / aq2=0 / aq3=0
Язык : English
Default : Да
Forced : Нет
Аудио #1
Идентификатор : 2
Формат : AC-3
Формат/Информация : Audio Coding 3
Коммерческое название : Dolby Digital
Идентификатор кодека : A_AC3
Продолжительность : 1 ч. 40 м.
Вид битрейта : Постоянный
Битрейт : 448 Кбит/сек
Каналы : 6 каналов
Channel layout : L R C LFE Ls Rs
Частота : 48,0 КГц
Частота кадров : 31,250 кадров/сек (1536 SPF)
Метод сжатия : С потерями
Размер потока : 323 Мбайт (3%)
Заголовок : Dub [Mosfilm]
Язык : Russian
Service kind : Complete Main
Default : Да
Forced : Да
Аудио #2
Идентификатор : 3
Формат : E-AC-3
Формат/Информация : Enhanced AC-3
Коммерческое название : Dolby Digital Plus
Идентификатор кодека : A_EAC3
Продолжительность : 1 ч. 40 м.
Вид битрейта : Постоянный
Битрейт : 448 Кбит/сек
Каналы : 6 каналов
Channel layout : L R C LFE Ls Rs
Частота : 48,0 КГц
Частота кадров : 31,250 кадров/сек (1536 SPF)
Метод сжатия : С потерями
Размер потока : 323 Мбайт (3%)
Заголовок : Dub [Mosfilm]
Язык : Russian
Service kind : Complete Main
Default : Нет
Forced : Нет
Аудио #3
Идентификатор : 4
Формат : AC-3
Формат/Информация : Audio Coding 3
Коммерческое название : Dolby Digital
Идентификатор кодека : A_AC3
Продолжительность : 1 ч. 40 м.
Вид битрейта : Постоянный
Битрейт : 640 Кбит/сек
Каналы : 6 каналов
Channel layout : L R C LFE Ls Rs
Частота : 48,0 КГц
Частота кадров : 31,250 кадров/сек (1536 SPF)
Метод сжатия : С потерями
Размер потока : 462 Мбайт (4%)
Заголовок : Original
Язык : English
Service kind : Complete Main
Default : Нет
Forced : Нет
Текст #1
Идентификатор : 5
Формат : UTF-8
Идентификатор кодека : S_TEXT/UTF8
Идентификатор кодека/Информация : UTF-8 Plain Text
Продолжительность : 1 ч. 32 м.
Битрейт : 80 бит/сек
Count of elements : 1232
Размер потока : 54,3 Кбайт (0%)
Заголовок : Full
Язык : Russian
Default : Нет
Forced : Нет
Текст #2
Идентификатор : 6
Формат : UTF-8
Идентификатор кодека : S_TEXT/UTF8
Идентификатор кодека/Информация : UTF-8 Plain Text
Продолжительность : 1 ч. 32 м.
Битрейт : 54 бит/сек
Count of elements : 1155
Размер потока : 36,4 Кбайт (0%)
Заголовок : Full
Язык : English
Default : Нет
Forced : Нет
Текст #3
Идентификатор : 7
Формат : UTF-8
Идентификатор кодека : S_TEXT/UTF8
Идентификатор кодека/Информация : UTF-8 Plain Text
Продолжительность : 1 ч. 32 м.
Битрейт : 60 бит/сек
Count of elements : 1322
Размер потока : 41,0 Кбайт (0%)
Заголовок : SDH
Язык : English
Default : Нет
Forced : Нет
Меню
00:00:00.000 : en:Глава 01
00:06:03.154 : en:Глава 02
00:10:33.550 : en:Глава 03
00:18:56.677 : en:Глава 04
00:26:50.234 : en:Глава 05
00:38:33.394 : en:Глава 06
00:44:41.888 : en:Глава 07
00:58:07.567 : en:Глава 08
01:04:16.478 : en:Глава 09
01:08:45.163 : en:Глава 10
01:16:08.481 : en:Глава 11
01:32:34.924 : en:Глава 12
Скриншоты:
Все одноименные релизы в КлубеВремя раздачи: 24/7 (до 10-ти скачавших)
[Профиль] [ЛС]
Показать сообщения:    
Ответить на тему

Текущее время: 20-Апр 20:20

Часовой пояс: UTC ± 0



Вы не можете начинать темы
Вы не можете отвечать на сообщения
Вы не можете редактировать свои сообщения
Вы не можете удалять свои сообщения
Вы не можете голосовать в опросах
Вы не можете прикреплять файлы к сообщениям
Вы не можете скачивать файлы

[  Время выполнения: 0,042 сек  |  MySQL: 0,004 сек (9%) · 5 запр.  |  GZIP выкл  |  Память: 422,29 KB / 1,76 MB / 1,38 MB  |  Лимит: 6 6 5  ]