Неудержимые 4 / Expend4bles (2023) WEB-DLRip [H.264/1080p] [Line, AD]

Ответить на тему
 
Автор Сообщение

admin ®

Пол: Не указан

Стаж: 7 месяца 26 дня

Сообщений: 11520

Создавать темы 14-Окт-2023 13:32

[Цитировать]

Неудержимые 4 / Expend4bles (2023) WEB-DLRip [H.264/1080p]- Производство: США, Campbell Grobman Films, Media Capital Technologies, Millennium Films, Nu Boyana Film Studios
Жанр: боевик
Режиссер: Скотт Во
Продюсер: Ярив Лернер, Джейсон Стэйтем, Кевин Кинг Темплтон
Актеры: Джейсон Стэйтем, Фифти Сент, Меган Фокс, Сильвестр Сталлоне, Энди Гарсиа, Дольф Лундгрен, Тони Джа, Ико Уайс, Рэнди Кутюр, Джейкоб Скипио
Описание:
Неудержимые несут потери: Барни Росс выбывает из строя, а Ли Кристмас отстранен от будущих операций. В команду набирают новых бойцов и отправляют возмещать ущерб. Но и они терпят поражение и попадают в плен. Теперь Ли Кристмас должен в одиночку пробраться в логово противника и освободить команду, попутно предотвратив глобальную катастрофу. Только так можно спасти мир и восстановить репутацию Неудержимых.
Возраст: 18+ (зрителям, достигшим 18 лет. запрещено для детей)
Рейтинг MPAA: R (лицам до 17 лет обязательно присутствие взрослого)
Продолжительность: 01:38:59
Качество видео: WEB-DLRip
Перевод: Дублированный
Субтитры: Отсутствуют
Реклама: Присутствует баннер
Видео: AVC/H.264, 1920x804, 2832 Kbps, 25.000 fps
Аудио: АС3, 2 ch, 48 kHz, 192 Kbps | Русский

MediaInfo:

Общее
Уникальный идентификатор : 172417752706068971525797666214872988491 (0x81B673879D3693AD860DCE607FC9BB4B)
Полное имя : D:\Неудержимые.4.2023.WEB-DLRip.[1080p].Soft-Torrent - торрент игры программы фильмы книги скачать.mkv
Формат : Matroska
Версия формата : Version 4
Размер файла : 2,09 Гбайт
Продолжительность : 1 ч. 38 м.
Общий поток : 3026 Кбит/сек
Название фильма : Неудержимые.4.2023.WEB-DLRip.[1080p].Soft-Torrent - торрент игры программы фильмы книги скачать
Дата кодирования : UTC 2023-10-13 04:54:33
Программа кодирования : mkvmerge v8.3.0 ('Over the Horizon') 64bit
Библиотека кодирования : libebml v1.3.1 + libmatroska v1.4.2
Видео
Идентификатор : 1
Формат : AVC
Формат/Информация : Advanced Video Codec
Профиль формата : High@L4.1
Настройки формата : CABAC / 4 Ref Frames
Параметр CABAC формата : Да
Параметр RefFrames формата : 4 кадра
Идентификатор кодека : V_MPEG4/ISO/AVC
Продолжительность : 1 ч. 38 м.
Битрейт : 2832 Кбит/сек
Ширина : 1920 пикселей
Высота : 804 пикселя
Соотношение сторон : 2,40:1
Режим частоты кадров : Постоянный
Частота кадров : 25,000 кадров/сек
Цветовое пространство : YUV
Субдискретизация насыщенности : 4:2:0
Битовая глубина : 8 бит
Тип развёртки : Прогрессивная
Бит/(Пиксели*Кадры) : 0.073
Размер потока : 1,96 Гбайт (94%)
Язык : English
Default : Да
Forced : Нет
Аудио
Идентификатор : 2
Формат : AC-3
Формат/Информация : Audio Coding 3
Коммерческое название : Dolby Digital
Идентификатор кодека : A_AC3
Продолжительность : 1 ч. 38 м.
Вид битрейта : Постоянный
Битрейт : 192 Кбит/сек
Каналы : 2 канала
ChannelLayout : L R
Частота : 48,0 КГц
Частота кадров : 31,250 кадров/сек (1536 SPF)
Битовая глубина : 16 бит
Метод сжатия : С потерями
Размер потока : 136 Мбайт (6%)
Язык : Russian
ServiceKind/String : Complete Main
Default : Да
Forced : Нет
Скриншоты:
Все одноименные релизы в КлубеВремя раздачи: 24/7 (минимум до появления первых 3-5 скачавших)
[Профиль] [ЛС]
Показать сообщения:    
Ответить на тему

Текущее время: 24-Май 13:08

Часовой пояс: UTC ± 0



Вы не можете начинать темы
Вы не можете отвечать на сообщения
Вы не можете редактировать свои сообщения
Вы не можете удалять свои сообщения
Вы не можете голосовать в опросах
Вы не можете прикреплять файлы к сообщениям
Вы не можете скачивать файлы

[  Время выполнения: 0,030 сек  |  MySQL: 0,003 сек (11%) · 3 запр.  |  GZIP выкл  |  Память: 422,49 KB / 1,72 MB / 1,32 MB  |  Лимит: 11 9 8  ]