Аптекарь Мельхиор / Apteeker Melchior (2022) BDRip [H.264] [VO]

Ответить на тему
 
Автор Сообщение

admin ®

Пол: Не указан

Стаж: 6 месяца 22 дня

Сообщений: 11520

Создавать темы 30-Янв-2024 17:49

[Цитировать]

Аптекарь Мельхиор / Apteeker Melchior (2022) BDRip [H.264]- Производство: Эстония / Apollo Film Productions, Film Angels Production, HansaFilm
Жанр: триллер, криминал, история
Режиссер: Элмо Нюганен
Актеры: Ало Кырве, Маарья Йоханна Мяги, Siim Kelner, Ken Rüütel, Марко Матвере, Martin Kork, Майт Мальмстен, Кристиан Сарв, Андеро Эрмель, Franz Malmsten
Описание:
По мотивам исторического романа Индрека Харгла (Indrek Hargla). Это первая часть трилогии о Мельхиоре. Фильм посвящен аптекарю Мельхиору Вакенстеде, который расследует преступления в средневековом Таллине в 1409 году. Убит знаменитый рыцарь Клингенштайн, который освободил от пиратов Балтийскоe морe. Голова героя отрублена, а рот набит монетами. Золотая цепочка, которую он купил в день своей гибели, пропала. Судебный пристав (фогт) поручает аптекарю Мельхиору, умеющему разговаривать с мёртвыми, расследовать преступление. Умный юноша обнаруживает, что убитый искал таинственного „таллинского узника“ и следы ведут в Доминиканский монастырь. Развязывается чудовищная череда кровопролитий — любому, кто соприкоснётся с этой тайной, грозит смерть. В то же время аптекарь сомневается в своем ученике, который, кажется, что-то скрывает...
Релиз от: Soft-Torrent - торрент игры программы фильмы книги скачать
Продолжительность: 01:37:36
Качество видео: BDRip (AVC)
Перевод: Любительский одноголосый ("Anthill")
Язык озвучки: Русский, эстонский
Субтитры: Русские, английские, эстонские
Видео: AVC/H.264, 1024x432, ~1763 Rbps
Аудио #1: AC3, 2 ch, 192 Kbps - Русский
Аудио #2: AC3, 6 ch, 448 Kbps - Эстонский

MediaInfo:

Общее
Уникальный идентификатор : 177623367608385369029355354363416379453 (0x85A10428F593D2E997C001B6E4C5803D)
Полное имя : D:\NNM\Аптекарь Мельхиор\Apteeker.Melchior.2022.BDRip.x264.Soft-Torrent - торрент игры программы фильмы книги скачать.mkv
Формат : Matroska
Версия формата : Version 4
Размер файла : 1,64 Гбайт
Продолжительность : 1 ч. 37 м.
Общий поток : 2 404 Кбит/сек
Название фильма : Apteeker.Melchior.2022
Дата кодирования : UTC 2023-09-07 08:24:11
Программа кодирования : mkvmerge v6.9.1 ('Blue Panther') 32bit built on Apr 18 2014 18:15:44
Библиотека кодирования : libebml v1.3.0 + libmatroska v1.4.1
Обложка : Yes
Attachments : cover.jpg
Видео
Идентификатор : 1
Формат : AVC
Формат/Информация : Advanced Video Codec
Профиль формата : High@L4.1
Настройки формата : CABAC / 14 Ref Frames
Параметр CABAC формата : Да
Параметр RefFrames формата : 14 кадров
Идентификатор кодека : V_MPEG4/ISO/AVC
Продолжительность : 1 ч. 37 м.
Битрейт : 1 763 Кбит/сек
Ширина : 1 024 пикселя
Высота : 432 пикселя
Соотношение сторон : 2,40:1
Режим частоты кадров : Постоянный
Частота кадров : 24,000 кадра/сек
Цветовое пространство : YUV
Субдискретизация насыщенности : 4:2:0
Битовая глубина : 8 бит
Тип развёртки : Прогрессивная
Бит/(Пиксели*Кадры) : 0.166
Размер потока : 1,17 Гбайт (71%)
Библиотека кодирования : x264 core 146 r2538 121396c
Настройки программы : cabac=1 / ref=14 / deblock=1:-3:-3 / analyse=0x3:0x113 / me=umh / subme=11 / psy=1 / psy_rd=1.00:0.15 / mixed_ref=1 / me_range=32 / chroma_me=1 / trellis=2 / 8x8dct=1 / cqm=0 / deadzone=21,11 / fast_pskip=0 / chroma_qp_offset=-3 / threads=12 / lookahead_threads=2 / sliced_threads=0 / nr=0 / decimate=0 / interlaced=0 / bluray_compat=0 / constrained_intra=0 / bframes=8 / b_pyramid=2 / b_adapt=2 / b_bias=0 / direct=1 / weightb=1 / open_gop=0 / weightp=2 / keyint=240 / keyint_min=23 / scenecut=40 / intra_refresh=0 / rc_lookahead=40 / rc=2pass / mbtree=0 / bitrate=1763 / ratetol=1.0 / qcomp=0.60 / qpmin=0 / qpmax=69 / qpstep=4 / cplxblur=20.0 / qblur=0.5 / vbv_maxrate=50000 / vbv_bufsize=62500 / nal_hrd=none / filler=0 / ip_ratio=1.40 / pb_ratio=1.30 / aq=1:0.90
Default : Да
Forced : Нет
Аудио #1
Идентификатор : 2
Формат : AC-3
Формат/Информация : Audio Coding 3
Коммерческое название : Dolby Digital
Идентификатор кодека : A_AC3
Продолжительность : 1 ч. 37 м.
Вид битрейта : Постоянный
Битрейт : 192 Кбит/сек
Каналы : 2 канала
Channel layout : L R
Частота : 48,0 КГц
Частота кадров : 31,250 кадров/сек (1536 SPF)
Метод сжатия : С потерями
Размер потока : 134 Мбайт (8%)
Заголовок : VO - "Anthill"
Язык : Russian
Service kind : Complete Main
Default : Да
Forced : Нет
Аудио #2
Идентификатор : 3
Формат : AC-3
Формат/Информация : Audio Coding 3
Коммерческое название : Dolby Digital
Идентификатор кодека : A_AC3
Продолжительность : 1 ч. 37 м.
Вид битрейта : Постоянный
Битрейт : 448 Кбит/сек
Каналы : 6 каналов
Channel layout : L R C LFE Ls Rs
Частота : 48,0 КГц
Частота кадров : 31,250 кадров/сек (1536 SPF)
Метод сжатия : С потерями
Размер потока : 313 Мбайт (19%)
Язык : Estonian
Service kind : Complete Main
Default : Нет
Forced : Нет
Текст #1
Идентификатор : 4
Формат : UTF-8
Идентификатор кодека : S_TEXT/UTF8
Идентификатор кодека/Информация : UTF-8 Plain Text
Язык : Russian
Default : Нет
Forced : Нет
Текст #2
Идентификатор : 5
Формат : UTF-8
Идентификатор кодека : S_TEXT/UTF8
Идентификатор кодека/Информация : UTF-8 Plain Text
Язык : English
Default : Нет
Forced : Нет
Текст #3
Идентификатор : 6
Формат : UTF-8
Идентификатор кодека : S_TEXT/UTF8
Идентификатор кодека/Информация : UTF-8 Plain Text
Язык : Estonian
Default : Нет
Forced : Нет
Скриншоты: Все одноименные релизы в КлубеВремя раздачи: 24/7 (до 10-ти скачавших)
[Профиль] [ЛС]
Показать сообщения:    
Ответить на тему

Текущее время: 20-Апр 19:43

Часовой пояс: UTC ± 0



Вы не можете начинать темы
Вы не можете отвечать на сообщения
Вы не можете редактировать свои сообщения
Вы не можете удалять свои сообщения
Вы не можете голосовать в опросах
Вы не можете прикреплять файлы к сообщениям
Вы не можете скачивать файлы

[  Время выполнения: 0,030 сек  |  MySQL: 0,003 сек (11%) · 3 запр.  |  GZIP выкл  |  Память: 422,29 KB / 1,73 MB / 1,35 MB  |  Лимит: 5 5 7  ]