Мегалодон / The Black Demon (2023) BDRemux [H.264/1080p]

Ответить на тему
 
Автор Сообщение

admin ®

Пол: Не указан

Стаж: 6 месяца 22 дня

Сообщений: 11520

Создавать темы 30-Янв-2024 17:49

[Цитировать]

Мегалодон / The Black Demon (2023) BDRemux [H.264/1080p]- Производство: США, Доминикана, Мексика / Buzzfeed Studios, Chocolatito, Diamond Films
Жанр: ужасы, фантастика, триллер
Режиссер: Адриан Грюнберг
Продюсер: Мартин Дж. Бараб, Брюс Баршоп
Актеры: Джош Лукас, Фернанда Уррехола, Хулио Седильо, Омар Чапарро, Боливар Санчес, Карлос Солорзано, Венус Эриель, Рауль Мендес, Артуро Дюверж, Луис дель Валле
Описание: Пол и его семья собираются провести отпуск в райском местечке на побережье. К их удивлению, живописный и дружелюбный поселок покинут и разрушен. По ацтекским легендам, в местных водах обитает последний мегалодон — Черный демон. Он ревностно защищает природу от вторжения людей, уничтожая все на своем пути. Отправившись на прибрежную платформу в поисках ответов, семья оказывается в ловушке. И теперь Полу нужно найти способ спасти своих близких.
Возраст: 18+ (Зрителям, достигшим 18 лет)
Рейтинг MPAA: R (Лицам до 17 обязательно присутствие взрослых)
Релиз от: Селезень
Продолжительность: 01:40:53
Качество видео: BDRemux 1080p
Перевод: Дублированный (Мосфильм-Мастер), Профессиональный многоголосый
Язык озвучки: Русский, Английский
Субтитры: Русские (Full), Английские (Full, SDH)
Видео: AVC/H.264, 1920x1080, 23.5 Mbps, 23.976 fps
Аудио 1: E-AC-3, 6 ch, 448 Kbps | Русский Dub Мосфильм-Мастер
Аудио 2: AC-3, 2.0 ch, 192 Kbps | Русский MVO TVShows
Аудио 3: DTS-HD MA, 6 ch, 2108 Kbps | Английский

Mediainfo:

General
Unique ID : 90665894363088625987036060517604249113 (0x44359DB7FFBFBFA482304C463963CE19)
Complete name : /Volumes/Promise Pegasus/The.Black.Demon.2023.BDRemux.1080p.mkv
Format : Matroska
Format version : Version 4
File size : 18.5 GiB
Duration : 1 h 40 min
Overall bit rate mode : Variable
Overall bit rate : 26.3 Mb/s
Frame rate : 23.976 FPS
Movie name : The Black Demon 2023 BDRemux 1080p
Encoded date : 2023-09-07 14:19:51 UTC
Writing application : mkvmerge v79.0 ('Funeral Pyres') 64-bit
Writing library : libebml v1.4.4 + libmatroska v1.7.1
Cover : Yes
Attachments : cover.jpg / small_cover.jpg
Video
ID : 1
Format : AVC
Format/Info : Advanced Video Codec
Format profile : High@L4.1
Format settings : CABAC / 4 Ref Frames
Format settings, CABAC : Yes
Format settings, Reference frames : 4 frames
Codec ID : V_MPEG4/ISO/AVC
Duration : 1 h 40 min
Bit rate mode : Variable
Bit rate : 23.5 Mb/s
Maximum bit rate : 35.0 Mb/s
Width : 1 920 pixels
Height : 1 080 pixels
Display aspect ratio : 16:9
Frame rate mode : Constant
Frame rate : 23.976 (24000/1001) FPS
Standard : NTSC
Color space : YUV
Chroma subsampling : 4:2:0
Bit depth : 8 bits
Scan type : Progressive
Bits/(Pixel*Frame) : 0.473
Stream size : 16.6 GiB (90%)
Language : English
Default : Yes
Forced : No
Color range : Limited
Color primaries : BT.709
Transfer characteristics : BT.709
Matrix coefficients : BT.709
Audio #1
ID : 2
Format : E-AC-3
Format/Info : Enhanced AC-3
Commercial name : Dolby Digital Plus
Codec ID : A_EAC3
Duration : 1 h 40 min
Bit rate mode : Constant
Bit rate : 448 kb/s
Channel(s) : 6 channels
Channel layout : L R C LFE Ls Rs
Sampling rate : 48.0 kHz
Frame rate : 31.250 FPS (1536 SPF)
Compression mode : Lossy
Stream size : 323 MiB (2%)
Title : Russian Dub Mosfilm
Language : Russian
Service kind : Complete Main
Default : Yes
Forced : No
Audio #2
ID : 3
Format : AC-3
Format/Info : Audio Coding 3
Commercial name : Dolby Digital
Codec ID : A_AC3
Duration : 1 h 40 min
Bit rate mode : Constant
Bit rate : 192 kb/s
Channel(s) : 2 channels
Channel layout : L R
Sampling rate : 48.0 kHz
Frame rate : 31.250 FPS (1536 SPF)
Compression mode : Lossy
Stream size : 139 MiB (1%)
Title : Russian MVO TVShows
Language : Russian
Service kind : Complete Main
Default : No
Forced : No
Audio #3
ID : 4
Format : DTS XLL
Format/Info : Digital Theater Systems
Commercial name : DTS-HD Master Audio
Codec ID : A_DTS
Duration : 1 h 40 min
Bit rate mode : Variable
Bit rate : 2 108 kb/s
Channel(s) : 6 channels
Channel layout : C L R Ls Rs LFE
Sampling rate : 48.0 kHz
Frame rate : 93.750 FPS (512 SPF)
Bit depth : 16 bits
Compression mode : Lossless
Stream size : 1.49 GiB (8%)
Title : English Original
Language : English
Default : No
Forced : No
Text #1
ID : 5
Format : UTF-8
Codec ID : S_TEXT/UTF8
Codec ID/Info : UTF-8 Plain Text
Duration : 1 h 32 min
Bit rate : 80 b/s
Frame rate : 0.223 FPS
Count of elements : 1232
Stream size : 54.3 KiB (0%)
Title : Russian full
Language : Russian
Default : No
Forced : No
Text #2
ID : 6
Format : UTF-8
Codec ID : S_TEXT/UTF8
Codec ID/Info : UTF-8 Plain Text
Duration : 1 h 32 min
Bit rate : 54 b/s
Frame rate : 0.209 FPS
Count of elements : 1155
Stream size : 36.4 KiB (0%)
Title : English full
Language : English
Default : No
Forced : No
Text #3
ID : 7
Format : UTF-8
Codec ID : S_TEXT/UTF8
Codec ID/Info : UTF-8 Plain Text
Duration : 1 h 32 min
Bit rate : 60 b/s
Frame rate : 0.239 FPS
Count of elements : 1322
Stream size : 41.0 KiB (0%)
Title : English SDH
Language : English
Default : No
Forced : No
Menu
00:00:00.000 : en:Глава 01
00:06:03.154 : en:Глава 02
00:10:33.550 : en:Глава 03
00:18:56.677 : en:Глава 04
00:26:50.234 : en:Глава 05
00:38:33.394 : en:Глава 06
00:44:41.888 : en:Глава 07
00:58:07.567 : en:Глава 08
01:04:16.478 : en:Глава 09
01:08:45.163 : en:Глава 10
01:16:08.481 : en:Глава 11
01:32:34.924 : en:Глава 12
Скриншоты:
Все одноименные релизы в КлубеВремя раздачи: 24/7 (круглосуточно) (до появления первых 3-5 скачавших)
[Профиль] [ЛС]
Показать сообщения:    
Ответить на тему

Текущее время: 20-Апр 20:07

Часовой пояс: UTC ± 0



Вы не можете начинать темы
Вы не можете отвечать на сообщения
Вы не можете редактировать свои сообщения
Вы не можете удалять свои сообщения
Вы не можете голосовать в опросах
Вы не можете прикреплять файлы к сообщениям
Вы не можете скачивать файлы

[  Время выполнения: 0,028 сек  |  MySQL: 0,002 сек (8%) · 3 запр.  |  GZIP выкл  |  Память: 422,29 KB / 1,73 MB / 1,35 MB  |  Лимит: 4 5 5  ]