Последняя королева / La derniere reine / The Last Queen (2022) WEBRip [H.264/720p]

Ответить на тему
 
Автор Сообщение

admin ®

Пол: Не указан

Стаж: 6 месяца 19 дня

Сообщений: 11520

Создавать темы 30-Янв-2024 17:48

[Цитировать]

Последняя королева / La dernière reine / The Last Queen (2022) WEBRip [H.264/720p]- Производство: Франция, Алжир, Тайвань, Саудовская Аравия, Катар, Taj Intaj, Agat Films & Cie, CADC
Жанр: драма, приключения, история
Режиссер: Адила Бендимерад, Дамьен Онури
Актеры: Адила Бендимерад, Дали Бенссалах, Мохамед Тахар Зауи, Имен Нуэль, Надя Терешкевич, Янис Ауин, Лила Туши, Мина Лахтер, Тену Хилули, Мерьем Меджкане
Описание:
События фильма разворачиваются в 1516 году. Алжирский эмир Селим-Эвтеми обращается к турецкому пирату Аруджу Барбаросса, чтобы он помог освободить Алжир от испанского гнета. Барбаросса быстро избавился от испанцев, но на этом не остановился и убил самого эмира, опьяненный властью и красотой его жены Зафиры. Прекрасная Зафира отвергла жестокого пирата и бросила вызов его тирании, но Барбаросса не привык к отказам и проигрышам. «Последняя королева» — историческая драма, ставшая одной из первых костюмированных фильмов в Алжире.
Возраст: 18+ (зрителям, достигшим 18 лет. запрещено для детей)
Релиз от: Jolan
Продолжительность: 01:48:51
Качество видео: WEBRip
Перевод: Дублированный (Кинопоиск HD)
Язык озвучки: Русский
Субтитры: отсутствуют
Видео: AVC/H.264, 1280x690, ~3000 Kbps
Аудио: AAC, 6 ch, 256 Kbps

MediaInfo:

General
Complete name : C:\Users\User\Desktop\KPK\The.Last.Queen.2022.WEBRip.720p.Jolan.mp4
Format : MPEG-4
Format profile : Base Media
Codec ID : isom (isom)
File size : 2.48 GiB
Duration : 1 h 48 min
Overall bit rate mode : Variable
Overall bit rate : 3 257 kb/s
Frame rate : 25.000 FPS
Encoded date : 2023-09-07 18:38:27 UTC
Tagged date : 2023-09-07 18:38:27 UTC
Writing application : By Jolan
Video
ID : 1
Format : AVC
Format/Info : Advanced Video Codec
Format profile : High@L4.1
Format settings : CABAC / 9 Ref Frames
Format settings, CABAC : Yes
Format settings, Reference frames : 9 frames
Codec ID : avc1
Codec ID/Info : Advanced Video Coding
Duration : 1 h 48 min
Bit rate : 3 000 kb/s
Maximum bit rate : 17.8 Mb/s
Width : 1 280 pixels
Height : 690 pixels
Display aspect ratio : 1.85:1
Frame rate mode : Constant
Frame rate : 25.000 FPS
Color space : YUV
Chroma subsampling : 4:2:0
Bit depth : 8 bits
Scan type : Progressive
Bits/(Pixel*Frame) : 0.136
Stream size : 2.28 GiB (92%)
Writing library : x264 core 164 r3107 a8b68eb
Encoding settings : cabac=1 / ref=9 / deblock=1:-2:-2 / analyse=0x3:0x133 / me=umh / subme=11 / psy=1 / psy_rd=1.00:0.15 / mixed_ref=1 / me_range=32 / chroma_me=1 / trellis=2 / 8x8dct=1 / cqm=0 / deadzone=21,11 / fast_pskip=0 / chroma_qp_offset=-3 / threads=22 / lookahead_threads=3 / sliced_threads=0 / nr=0 / decimate=1 / interlaced=0 / bluray_compat=0 / constrained_intra=0 / bframes=8 / b_pyramid=2 / b_adapt=2 / b_bias=0 / direct=3 / weightb=1 / open_gop=0 / weightp=2 / keyint=250 / keyint_min=25 / scenecut=40 / intra_refresh=0 / rc_lookahead=60 / rc=2pass / mbtree=1 / bitrate=3000 / ratetol=1.0 / qcomp=0.60 / qpmin=0 / qpmax=69 / qpstep=4 / cplxblur=20.0 / qblur=0.5 / vbv_maxrate=62500 / vbv_bufsize=78125 / nal_hrd=none / filler=0 / ip_ratio=1.40 / aq=1:1.00
Encoded date : 2023-09-07 18:10:00 UTC
Tagged date : 2023-09-07 18:38:49 UTC
Codec configuration box : avcC
Audio
ID : 2
Format : AAC LC
Format/Info : Advanced Audio Codec Low Complexity
Codec ID : mp4a-40-2
Duration : 1 h 48 min
Bit rate mode : Variable
Bit rate : 256 kb/s
Maximum bit rate : 267 kb/s / 256 kb/s
Channel(s) : 6 channels
Channel layout : C L R Ls Rs LFE
Sampling rate : 48.0 kHz
Frame rate : 46.875 FPS (1024 SPF)
Compression mode : Lossy
Stream size : 199 MiB (8%)
Default : Yes
Alternate group : 1
Tagged date : 2023-09-07 18:38:49 UTC
Скриншоты:
Все одноименные релизы в КлубеВремя раздачи: 24/7 (круглосуточно) (минимум до появления первых 3-5 скачавших)
[Профиль] [ЛС]
Показать сообщения:    
Ответить на тему

Текущее время: 17-Апр 15:08

Часовой пояс: UTC ± 0



Вы не можете начинать темы
Вы не можете отвечать на сообщения
Вы не можете редактировать свои сообщения
Вы не можете удалять свои сообщения
Вы не можете голосовать в опросах
Вы не можете прикреплять файлы к сообщениям
Вы не можете скачивать файлы

[  Время выполнения: 0,031 сек  |  MySQL: 0,002 сек (8%) · 3 запр.  |  GZIP выкл  |  Память: 422,29 KB / 1,74 MB / 1,34 MB  |  Лимит: 9 7 7  ]