Миссия невыполнима: Смертельная расплата, часть 1 / Mission: Impossible - Dead Reckoning Part One (2023) WEB-DL [H.264/1080p] [MVO]

Ответить на тему
 
Автор Сообщение

admin ®

Пол: Не указан

Стаж: 6 месяца 19 дня

Сообщений: 11520

Создавать темы 14-Окт-2023 13:15

[Цитировать]

Миссия невыполнима: Смертельная расплата, часть 1 / Mission: Impossible - Dead Reckoning Part One (2023) WEB-DL [H.264/1080p] - Производство: США / Paramount Pictures, Skydance Media, TC Productions
Жанр: боевик, триллер, приключения
Режиссер: Кристофер Маккуорри
Актеры: Том Круз, Хейли Этвелл, Винг Реймз, Саймон Пегг, Ребекка Фергюсон, Ванесса Кирби, Эсай Моралес, Пом Клементьефф, Генри Черни, Шей Уигэм
Описание:
Итан Хант и его команда противостоят системе искусственного интеллекта Entity, которая вышла из под контроля и стала угрозой человечества.
Рейтинг MPAA: PG-13 (детям до 13 лет просмотр нежелателен)
Продолжительность: 02:46:43
Качество видео: WEB-DL
Язык озвучки: русский, английский
Перевод: Любительский многоголосый (LE-Production)
Субтитры: нет
Видео: AVC/H.264, 1920x800 (2.40:1), ~ 9117 kbps
Аудио 1: E-AС3, 6 ch, 768 kbps - Русский
Аудио 2: E-AC-3 / Atmos, 6 ch, 768 kbps - Английский

MediaInfo:

General
Unique ID : 32017255905615790094961404582691997129 (0x18164C979F524FE444E07F21F44205C9)
Complete name :\Mission.Impossible.Dead.Reckoning.Part.One.2023.1080p.WEBRip.H264.DD+5.1.le-production.mkv
Format : Matroska
Format version : Version 4
File size : 12.7 GiB
Duration : 2 h 46 min
Overall bit rate mode : Constant
Overall bit rate : 10.9 Mb/s
Frame rate : 23.976 FPS
Movie name : Mission.Impossible.Dead.Reckoning.Part.One.2023.1080p.AMZN_JNS82
Encoded date : 2023-10-10 17:09:30 UTC
Writing application : mkvmerge v26.0.0 ('In The Game') 64-bit
Writing library : libebml v1.3.6 + libmatroska v1.4.9
Video
ID : 1
Format : AVC
Format/Info : Advanced Video Codec
Format profile : High@L4
Format settings : CABAC / 4 Ref Frames
Format settings, CABAC : Yes
Format settings, Reference frames : 4 frames
Codec ID : V_MPEG4/ISO/AVC
Duration : 2 h 46 min
Bit rate mode : Constant
Bit rate : 9 117 kb/s
Nominal bit rate : 10 000 kb/s
Width : 1 920 pixels
Height : 800 pixels
Display aspect ratio : 2.40:1
Frame rate mode : Constant
Frame rate : 23.976 (24000/1001) FPS
Color space : YUV
Chroma subsampling : 4:2:0
Bit depth : 8 bits
Scan type : Progressive
Bits/(Pixel*Frame) : 0.248
Stream size : 10.6 GiB (84%)
Language : English
Default : Yes
Forced : No
Color range : Limited
Color primaries : BT.709
Transfer characteristics : BT.709
Matrix coefficients : BT.709
Audio #1
ID : 2
Format : E-AC-3
Format/Info : Enhanced AC-3
Commercial name : Dolby Digital Plus
Codec ID : A_EAC3
Duration : 2 h 46 min
Bit rate mode : Constant
Bit rate : 768 kb/s
Channel(s) : 6 channels
Channel layout : L R C LFE Ls Rs
Sampling rate : 48.0 kHz
Frame rate : 31.250 FPS (1536 SPF)
Compression mode : Lossy
Stream size : 916 MiB (7%)
Title : le-production
Language : Russian
Service kind : Complete Main
Default : Yes
Forced : No
Audio #2
ID : 3
Format : E-AC-3 JOC
Format/Info : Enhanced AC-3 with Joint Object Coding
Commercial name : Dolby Digital Plus with Dolby Atmos
Codec ID : A_EAC3
Duration : 2 h 46 min
Bit rate mode : Constant
Bit rate : 768 kb/s
Channel(s) : 6 channels
Channel layout : L R C LFE Ls Rs
Sampling rate : 48.0 kHz
Frame rate : 31.250 FPS (1536 SPF)
Compression mode : Lossy
Delay relative to video : 21 ms
Stream size : 916 MiB (7%)
Language : English
Service kind : Complete Main
Default : No
Forced : No
Complexity index : 16
Number of dynamic objects : 15
Bed channel count : 1 channel
Bed channel configuration : LFE
Menu
00:00:00.021 : en:Chapter 01
00:07:23.798 : en:Chapter 02
00:15:48.344 : en:Chapter 03
00:28:03.579 : en:Chapter 04
00:32:36.310 : en:Chapter 05
00:45:36.632 : en:Chapter 06
00:55:57.294 : en:Chapter 07
01:08:52.695 : en:Chapter 08
01:17:42.850 : en:Chapter 09
01:31:16.956 : en:Chapter 10
01:41:37.618 : en:Chapter 11
01:51:37.760 : en:Chapter 12
02:01:39.612 : en:Chapter 13
02:14:11.072 : en:Chapter 14
02:21:30.511 : en:Chapter 15
02:35:25.846 : en:Chapter 16
Скриншоты:
Все одноименные релизы в КлубеВремя раздачи: 24/7 (мультитрекер)
[Профиль] [ЛС]
Показать сообщения:    
Ответить на тему

Текущее время: 17-Апр 15:23

Часовой пояс: UTC ± 0



Вы не можете начинать темы
Вы не можете отвечать на сообщения
Вы не можете редактировать свои сообщения
Вы не можете удалять свои сообщения
Вы не можете голосовать в опросах
Вы не можете прикреплять файлы к сообщениям
Вы не можете скачивать файлы

[  Время выполнения: 0,035 сек  |  MySQL: 0,003 сек (8%) · 3 запр.  |  GZIP выкл  |  Память: 422,49 KB / 1,74 MB / 1,35 MB  |  Лимит: 16 14 11  ]