Робопес / R.A.D.A.R.: The Adventures of the Bionic Dog (2023) WEB-DL [H.264/1080p]

Ответить на тему
 
Автор Сообщение

admin ®

Пол: Не указан

Стаж: 4 месяца 23 дня

Сообщений: 10110

Создавать темы 30-Янв-2024 17:48

[Цитировать]

Робопес / R.A.D.A.R.: The Adventures of the Bionic Dog (2023) WEB-DL [H.264/1080p]- Производство: США / Apricott Productions, Fairway Film Alliance, Litewave Media, One Rock Productions
Жанр: приключения, семейный
Режиссер: Скотт Вэндайвер
Актеры: Дин Кэйн, Эзра Джеймс Лерарио, Кэролайн Абрамс, Пол Уилсон, Виктория Уайт, Эндрю Ки, Бек, Рики Уэйн, Авис-Мари Барнс, Дэн Джонсон
Описание:
Всё прекрасно в этом маленьком городке у моря, но не хватает одного — туристов. Из-за чего и бар, принадлежащий Дебби, терпит убытки. Однако её сын Гейб знает, как спасти семейный бизнес — надо лишь найти голубой сапфир, который, по преданию, спрятали пираты! Вооружившись металлоискателем, Гейб и его подруга Кайли отправляются на поиски в ближайший лес, где встречают странного пса: с виду он как обычная собака, а на самом деле это бионический робот.
Рейтинг MPAA: PG (рекомендуется присутствие родителей)
Продолжительность: 01:21:42
Качество видео: WEB-DL
Перевод: Дублированный (Кипарис)
Язык озвучки: Русский, английский
Субтитры: Отсутствуют
Видео: AVC/H.264, 1920x1080, ~5000 Kbps
Аудио #1: AC3, 6 ch, 384 Kbps - Русский
Аудио #2: E-AC3, 6 ch, 384 Kbps - Русский
Аудио #3: E-AC3, 6 ch, 384 Kbps - Английский

MediaInfo:

Общее
Уникальный идентификатор : 208563008070581772221176350702812642916 (0x9CE7C635798DE28CB34E531855DDBE64)
Полное имя : D:\NNM\Робопес\Robopes.2023.WEB-DL.1080p.ELEKTRI4KA.UNIONGANG.mkv
Формат : Matroska
Версия формата : Version 4
Размер файла : 3,51 Гбайт
Продолжительность : 1 ч. 21 м.
Общий поток : 6 144 Кбит/сек
Название фильма : Robopes.2023.WEB-DL.1080p.ELEKTRI4KA.UNIONGANG.
Дата кодирования : UTC 2023-09-07 22:16:35
Программа кодирования : mkvmerge v8.3.0 ('Over the Horizon') 64bit
Библиотека кодирования : libebml v1.3.1 + libmatroska v1.4.2
Видео
Идентификатор : 1
Формат : AVC
Формат/Информация : Advanced Video Codec
Профиль формата : High@L4
Настройки формата : CABAC / 3 Ref Frames
Параметр CABAC формата : Да
Параметр RefFrames формата : 3 кадра
Идентификатор кодека : V_MPEG4/ISO/AVC
Продолжительность : 1 ч. 21 м.
Битрейт : 5 000 Кбит/сек
Ширина : 1 920 пикселей
Высота : 1 080 пикселей
Соотношение сторон : 16:9
Режим частоты кадров : Постоянный
Частота кадров : 25,000 кадров/сек
Цветовое пространство : YUV
Субдискретизация насыщенности : 4:2:0
Битовая глубина : 8 бит
Тип развёртки : Прогрессивная
Бит/(Пиксели*Кадры) : 0.096
Размер потока : 2,85 Гбайт (81%)
Библиотека кодирования : x264 core 161 r3048 b86ae3c
Настройки программы : cabac=1 / ref=4 / deblock=1:1:1 / analyse=0x3:0x133 / me=umh / subme=9 / psy=1 / psy_rd=0.40:1.00 / mixed_ref=1 / me_range=24 / chroma_me=1 / trellis=0 / 8x8dct=1 / cqm=0 / deadzone=21,11 / fast_pskip=1 / chroma_qp_offset=-2 / threads=34 / lookahead_threads=2 / sliced_threads=0 / nr=0 / decimate=1 / interlaced=0 / bluray_compat=0 / constrained_intra=0 / bframes=8 / b_pyramid=1 / b_adapt=1 / b_bias=0 / direct=3 / weightb=1 / open_gop=0 / weightp=2 / keyint=75 / keyint_min=38 / scenecut=0 / intra_refresh=0 / rc_lookahead=30 / rc=2pass / mbtree=1 / bitrate=5000 / ratetol=1.0 / qcomp=0.80 / qpmin=1 / qpmax=69 / qpstep=4 / cplxblur=20.0 / qblur=0.5 / vbv_maxrate=7500 / vbv_bufsize=10000 / nal_hrd=none / filler=0 / ip_ratio=1.40 / aq=1:1.00
Default : Да
Forced : Нет
Цветовой диапазон : Limited
Основные цвета : BT.709
Характеристики трансфера : BT.709
Коэффициенты матрицы : BT.709
Аудио #1
Идентификатор : 2
Формат : AC-3
Формат/Информация : Audio Coding 3
Коммерческое название : Dolby Digital
Идентификатор кодека : A_AC3
Продолжительность : 1 ч. 21 м.
Вид битрейта : Постоянный
Битрейт : 384 Кбит/сек
Каналы : 6 каналов
Channel layout : L R C LFE Ls Rs
Частота : 48,0 КГц
Частота кадров : 31,250 кадров/сек (1536 SPF)
Метод сжатия : С потерями
Размер потока : 224 Мбайт (6%)
Заголовок : DUB AC3 (Kiparis)
Язык : Russian
Service kind : Complete Main
Default : Да
Forced : Да
Аудио #2
Идентификатор : 3
Формат : E-AC-3
Формат/Информация : Enhanced AC-3
Коммерческое название : Dolby Digital Plus
Идентификатор кодека : A_EAC3
Продолжительность : 1 ч. 21 м.
Вид битрейта : Постоянный
Битрейт : 384 Кбит/сек
Каналы : 6 каналов
Channel layout : L R C LFE Ls Rs
Частота : 48,0 КГц
Частота кадров : 31,250 кадров/сек (1536 SPF)
Метод сжатия : С потерями
Размер потока : 224 Мбайт (6%)
Заголовок : DUB EAC3 (Kiparis)
Язык : Russian
Service kind : Complete Main
Default : Нет
Forced : Нет
Аудио #3
Идентификатор : 4
Формат : E-AC-3
Формат/Информация : Enhanced AC-3
Коммерческое название : Dolby Digital Plus
Идентификатор кодека : A_EAC3
Продолжительность : 1 ч. 21 м.
Вид битрейта : Постоянный
Битрейт : 384 Кбит/сек
Каналы : 6 каналов
Channel layout : L R C LFE Ls Rs
Частота : 48,0 КГц
Частота кадров : 31,250 кадров/сек (1536 SPF)
Метод сжатия : С потерями
Размер потока : 224 Мбайт (6%)
Заголовок : Original
Язык : English
Service kind : Complete Main
Default : Нет
Forced : Нет
Скриншоты: Все одноименные релизы в КлубеВремя раздачи: 24/7 (до 10-ти скачавших)
[Профиль] [ЛС]
Показать сообщения:    
Ответить на тему

Текущее время: 22-Фев 00:34

Часовой пояс: UTC ± 0



Вы не можете начинать темы
Вы не можете отвечать на сообщения
Вы не можете редактировать свои сообщения
Вы не можете удалять свои сообщения
Вы не можете голосовать в опросах
Вы не можете прикреплять файлы к сообщениям
Вы не можете скачивать файлы

[  Время выполнения: 0,040 сек  |  MySQL: 0,002 сек (5%) · 3 запр.  |  GZIP выкл  |  Память: 421,85 KB / 1,75 MB / 1,37 MB  |  Лимит: 17 16 15  ]