Ирати / Irati (2022) BDRip [H.264] [MVO]

Ответить на тему
 
Автор Сообщение

admin ®

Пол: Не указан

Стаж: 6 месяца 22 дня

Сообщений: 11520

Создавать темы 30-Янв-2024 17:47

[Цитировать]

Ирати / Irati (2022) BDRip - Производство: Испания, Франция / Bainet ZinemaIkusgarri FilmsKilima Media
Жанр: фэнтези, боевик, драма, приключения, история
Режиссер: Пауль Уркихо
Продюсер: Иньяки Буручага, Хуанхо Ланда, Пауль Уркихо
Актеры: Енеко Сагардов, Эдурне Аскарате, Ициар Итунё, Рамон Агирре, Иньиго Аранбарри, Иньиго Арамбуру, Нагоре Арамбуру, Карлос Аргиньяно, Айтор Барандиаран, Пачи Бискерт
Описание:
Действие происходит в 8-м веке на фоне христианизации удалённых районов в Пиренеях. Уже принявший христианство юный сын погибшего баскского вождя Энеко должен исполнить сделанное отцу обещание защитить свой народ и добиться процветания для него.
Релиз от: Rip by vitolinform
Продолжительность: 01:51:46
Качество видео: BDRip
Перевод: Многоголосый профессиональный (TVShows, Jaskier)
Язык озвучки: русский, испанский
Субтитры: русские, английские
Видео: AVC/H.264, 1024x426, ~1787 Kbps
Аудио 1: AC3, 6 ch, 384 Кbps | Русский (MVO, TVShows)
Аудио 2: AC3, 6 ch, 448 Кbps | Русский (MVO, Jaskier)
Аудио 3: AC3, 6 ch, 448 Кbps | Испанский

MediaInfo:

avs [info]: 1024x426p 1:1 @ 24000/1001 fps (cfr)
x264 [info]: using SAR=1/1
x264 [info]: using cpu capabilities: MMX2 SSE2Fast SSSE3 SSE4.2 AVX FMA3 BMI2 AVX2
x264 [info]: profile High, level 4.1, 4:2:0, 8-bit
x264 [info]: frame I:1252 Avg QP:14.30 size: 86908
x264 [info]: frame P:32152 Avg QP:18.31 size: 22316
x264 [info]: frame B:127397 Avg QP:21.48 size: 5272
x264 [info]: consecutive B-frames: 1.6% 2.0% 7.2% 16.9% 14.7% 31.5% 10.4% 9.6% 2.9% 1.5% 1.6%
x264 [info]: mb I I16..4: 7.3% 70.1% 22.6%
x264 [info]: mb P I16..4: 0.9% 5.3% 0.8% P16..4: 42.4% 26.0% 18.0% 0.0% 0.0% skip: 6.7%
x264 [info]: mb B I16..4: 0.0% 0.4% 0.1% B16..8: 37.5% 9.7% 2.9% direct: 4.9% skip:44.5% L0:46.3% L1:44.3% BI: 9.4%
x264 [info]: 8x8 transform intra:74.6% inter:67.1%
x264 [info]: direct mvs spatial:100.0% temporal:0.0%
x264 [info]: coded y,uvDC,uvAC intra: 88.3% 84.2% 64.4% inter: 22.8% 20.4% 8.3%
x264 [info]: i16 v,h,dc,p: 47% 9% 13% 31%
x264 [info]: i8 v,h,dc,ddl,ddr,vr,hd,vl,hu: 10% 7% 6% 10% 15% 14% 13% 12% 12%
x264 [info]: i4 v,h,dc,ddl,ddr,vr,hd,vl,hu: 10% 6% 5% 10% 15% 14% 13% 12% 13%
x264 [info]: i8c dc,h,v,p: 45% 19% 21% 15%
x264 [info]: Weighted P-Frames: Y:23.2% UV:17.9%
x264 [info]: ref P L0: 46.7% 11.1% 14.4% 6.5% 4.9% 3.6% 3.1% 1.7% 1.6% 1.3% 1.2% 1.0% 1.0% 0.9% 0.9% 0.2%
x264 [info]: ref B L0: 66.8% 12.0% 6.5% 3.5% 2.5% 2.1% 1.7% 1.1% 0.9% 0.8% 0.7% 0.7% 0.4% 0.2%
x264 [info]: ref B L1: 93.3% 6.7%
x264 [info]: kb/s:1786.76
encoded 160801 frames, 28.62 fps, 1786.76 kb/s
Final statistics
=============================================================
General
Unique ID : 132363123878579199769370489666226693747 (0x639435DB88236D424E18DE2EE9292673)
Complete name : C:\Irati.Era.bogov.i.monstrov.2022.Divisa.BDRip.AVC.mkv
Format : Matroska
Format version : Version 4
File size : 2.40 GiB
Duration : 1 h 51 min
Overall bit rate : 3 069 kb/s
Frame rate : 23.976 FPS
Movie name : Irati (2022) BDRip AVC _ vitolinform
Encoded date : 2023-09-08 04:28:45 UTC
Writing application : mkvmerge v79.0 ('Funeral Pyres') 64-bit
Writing library : libebml v1.4.4 + libmatroska v1.7.1
Attachments : poster.jpg / log.log
Video
ID : 1
Format : AVC
Format/Info : Advanced Video Codec
Format profile : High@L4.1
Format settings : CABAC / 15 Ref Frames
Format settings, CABAC : Yes
Format settings, Reference frames : 15 frames
Codec ID : V_MPEG4/ISO/AVC
Duration : 1 h 51 min
Bit rate : 1 787 kb/s
Width : 1 024 pixels
Height : 426 pixels
Display aspect ratio : 2.40:1
Frame rate mode : Constant
Frame rate : 23.976 (24000/1001) FPS
Color space : YUV
Chroma subsampling : 4:2:0
Bit depth : 8 bits
Scan type : Progressive
Bits/(Pixel*Frame) : 0.171
Stream size : 1.40 GiB (58%)
Title : Ирати / Irati (2022)
Writing library : x264 core 164 r3107 a8b68eb
Encoding settings : cabac=1 / ref=15 / deblock=1:-3:-3 / analyse=0x3:0x113 / me=umh / subme=10 / psy=1 / psy_rd=1.00:0.05 / mixed_ref=1 / me_range=32 / chroma_me=1 / trellis=2 / 8x8dct=1 / cqm=0 / deadzone=21,11 / fast_pskip=0 / chroma_qp_offset=-3 / threads=13 / lookahead_threads=3 / sliced_threads=0 / nr=0 / decimate=0 / interlaced=0 / bluray_compat=0 / constrained_intra=0 / bframes=10 / b_pyramid=2 / b_adapt=2 / b_bias=0 / direct=3 / weightb=1 / open_gop=0 / weightp=2 / keyint=240 / keyint_min=23 / scenecut=40 / intra_refresh=0 / rc_lookahead=40 / rc=crf / mbtree=1 / crf=18.0 / qcomp=0.60 / qpmin=0 / qpmax=69 / qpstep=4 / vbv_maxrate=50000 / vbv_bufsize=62500 / crf_max=0.0 / nal_hrd=none / filler=0 / ip_ratio=1.40 / aq=1:1.00
Default : Yes
Forced : No
Color range : Limited
Color primaries : BT.709
Transfer characteristics : BT.709
Matrix coefficients : BT.709
Audio #1
ID : 2
Format : AC-3
Format/Info : Audio Coding 3
Commercial name : Dolby Digital
Codec ID : A_AC3
Duration : 1 h 51 min
Bit rate mode : Constant
Bit rate : 384 kb/s
Channel(s) : 6 channels
Channel layout : L R C LFE Ls Rs
Sampling rate : 48.0 kHz
Frame rate : 31.250 FPS (1536 SPF)
Compression mode : Lossy
Stream size : 307 MiB (13%)
Title : MVO | TVShows
Language : Russian
Service kind : Complete Main
Default : Yes
Forced : No
Audio #2
ID : 3
Format : AC-3
Format/Info : Audio Coding 3
Commercial name : Dolby Digital
Codec ID : A_AC3
Duration : 1 h 51 min
Bit rate mode : Constant
Bit rate : 448 kb/s
Channel(s) : 6 channels
Channel layout : L R C LFE Ls Rs
Sampling rate : 48.0 kHz
Frame rate : 31.250 FPS (1536 SPF)
Compression mode : Lossy
Stream size : 358 MiB (15%)
Title : MVO | Jaskier
Language : Russian
Service kind : Complete Main
Default : No
Forced : No
Audio #3
ID : 4
Format : AC-3
Format/Info : Audio Coding 3
Commercial name : Dolby Digital
Codec ID : A_AC3
Duration : 1 h 51 min
Bit rate mode : Constant
Bit rate : 448 kb/s
Channel(s) : 6 channels
Channel layout : L R C LFE Ls Rs
Sampling rate : 48.0 kHz
Frame rate : 31.250 FPS (1536 SPF)
Compression mode : Lossy
Stream size : 358 MiB (15%)
Title : Spanish
Language : Spanish
Service kind : Complete Main
Default : No
Forced : No
Text #1
ID : 5
Format : UTF-8
Codec ID : S_TEXT/UTF8
Codec ID/Info : UTF-8 Plain Text
Duration : 1 h 49 min
Bit rate : 40 b/s
Frame rate : 0.099 FPS
Count of elements : 649
Stream size : 32.9 KiB (0%)
Title : Full | DJ Bionicl
Language : Russian
Default : No
Forced : No
Text #2
ID : 6
Format : UTF-8
Codec ID : S_TEXT/UTF8
Codec ID/Info : UTF-8 Plain Text
Duration : 1 h 49 min
Bit rate : 23 b/s
Frame rate : 0.125 FPS
Count of elements : 818
Stream size : 18.6 KiB (0%)
Title : Full
Language : English
Default : No
Forced : No
Menu
00:00:00.000 : en:Chapter 1
00:09:13.302 : en:Chapter 2
00:17:47.232 : en:Chapter 3
00:29:55.376 : en:Chapter 4
00:39:40.503 : en:Chapter 5
00:48:18.103 : en:Chapter 6
00:58:15.700 : en:Chapter 7
01:07:38.345 : en:Chapter 8
01:17:51.458 : en:Chapter 9
01:26:39.861 : en:Chapter 10
01:36:13.017 : en:Chapter 11
01:44:30.639 : en:Chapter 12
Скриншоты:
Все одноименные релизы в КлубеВремя раздачи: как минимум до появления первых 3-5 скачавших, 24/7 (мультитрекерная раздача)
[Профиль] [ЛС]
Показать сообщения:    
Ответить на тему

Текущее время: 20-Апр 20:22

Часовой пояс: UTC ± 0



Вы не можете начинать темы
Вы не можете отвечать на сообщения
Вы не можете редактировать свои сообщения
Вы не можете удалять свои сообщения
Вы не можете голосовать в опросах
Вы не можете прикреплять файлы к сообщениям
Вы не можете скачивать файлы

[  Время выполнения: 0,043 сек  |  MySQL: 0,003 сек (8%) · 3 запр.  |  GZIP выкл  |  Память: 422,29 KB / 1,75 MB / 1,37 MB  |  Лимит: 5 5 5  ]