Рубеж выживания / Last Sentinel (2023) BDRip [H.264/720p-LQ]

Ответить на тему
 
Автор Сообщение

admin ®

Пол: Не указан

Стаж: 5 месяца 1 день

Сообщений: 10110

Создавать темы 30-Янв-2024 17:47

[Цитировать]

Рубеж выживания / Last Sentinel (2023) BDRip [H.264/720p-LQ]- Производство: Великобритания / Allfilm, Altitude Film Entertainment
Жанр: фантастика, триллер, драма
Режиссер: Танел Тоом
Актеры: Кейт Босворт, Люсьен Лависконт, Мартин МакКанн, Томас Кречман, Бен Пуллен, Karin Tammaru, Jan Erik Ehrenberg, Моника Туви
Описание:
Четверо специалистов, обслуживающих сверхсекретный объект, уже давно работают посреди океана без связи с внешним миром. Когда ресурсы подходят к концу, а на контакт с ними никто не выходит, напряжение начинает возрастать. Приборы показывают приближение шторма, на горизонте появляется не подающий сигналов корабль. Команда начинает подозревать, что оказалась пешкой в чьей-то зловещей игре. Чтобы выбраться из ловушки и выжить, им придется разгадать тайну последнего рубежа
Возраст: 18+ (зрителям, достигшим 18 лет. запрещено для детей)
Релиз от: Jolan
Продолжительность: 01:57:09
Качество видео: BDRip
Перевод: Дублированный (Paragraph Media)
Язык озвучки: Русский
Субтитры: отсутствуют
Видео: AVC/H.264, 1280x536, ~3000 Kbps
Аудио: AAC, 6 ch, 256 Kbps

MediaInfo:

General
Complete name : C:\Users\User\Desktop\KPK\Last.Sentinel.2023.BDRip.720p.Jolan.mp4
Format : MPEG-4
Format profile : Base Media
Codec ID : isom (isom)
File size : 2.66 GiB
Duration : 1 h 57 min
Overall bit rate mode : Variable
Overall bit rate : 3 255 kb/s
Frame rate : 23.976 FPS
Encoded date : 2023-09-08 04:50:08 UTC
Tagged date : 2023-09-08 04:50:08 UTC
Writing application : By Jolan
Video
ID : 1
Format : AVC
Format/Info : Advanced Video Codec
Format profile : High@L4.1
Format settings : CABAC / 12 Ref Frames
Format settings, CABAC : Yes
Format settings, Reference frames : 12 frames
Codec ID : avc1
Codec ID/Info : Advanced Video Coding
Duration : 1 h 57 min
Bit rate : 3 000 kb/s
Maximum bit rate : 21.7 Mb/s
Width : 1 280 pixels
Height : 536 pixels
Display aspect ratio : 2.40:1
Frame rate mode : Constant
Frame rate : 23.976 (24000/1001) FPS
Color space : YUV
Chroma subsampling : 4:2:0
Bit depth : 8 bits
Scan type : Progressive
Bits/(Pixel*Frame) : 0.182
Stream size : 2.45 GiB (92%)
Writing library : x264 core 164 r3107 a8b68eb
Encoding settings : cabac=1 / ref=12 / deblock=1:-2:-2 / analyse=0x3:0x133 / me=umh / subme=11 / psy=1 / psy_rd=1.00:0.15 / mixed_ref=1 / me_range=32 / chroma_me=1 / trellis=2 / 8x8dct=1 / cqm=0 / deadzone=21,11 / fast_pskip=0 / chroma_qp_offset=-3 / threads=17 / lookahead_threads=2 / sliced_threads=0 / nr=0 / decimate=1 / interlaced=0 / bluray_compat=0 / constrained_intra=0 / bframes=8 / b_pyramid=2 / b_adapt=2 / b_bias=0 / direct=3 / weightb=1 / open_gop=0 / weightp=2 / keyint=240 / keyint_min=23 / scenecut=40 / intra_refresh=0 / rc_lookahead=60 / rc=2pass / mbtree=1 / bitrate=3000 / ratetol=1.0 / qcomp=0.60 / qpmin=0 / qpmax=69 / qpstep=4 / cplxblur=20.0 / qblur=0.5 / vbv_maxrate=62500 / vbv_bufsize=78125 / nal_hrd=none / filler=0 / ip_ratio=1.40 / aq=1:1.00
Encoded date : 2023-09-07 23:16:05 UTC
Tagged date : 2023-09-08 04:50:26 UTC
Codec configuration box : avcC
Audio
ID : 2
Format : AAC LC
Format/Info : Advanced Audio Codec Low Complexity
Codec ID : mp4a-40-2
Duration : 1 h 57 min
Bit rate mode : Variable
Bit rate : 256 kb/s
Maximum bit rate : 270 kb/s / 256 kb/s
Channel(s) : 6 channels
Channel layout : C L R Ls Rs LFE
Sampling rate : 48.0 kHz
Frame rate : 46.875 FPS (1024 SPF)
Compression mode : Lossy
Stream size : 214 MiB (8%)
Default : Yes
Alternate group : 1
Tagged date : 2023-09-08 04:50:26 UTC
Скриншоты:
Все одноименные релизы в КлубеВремя раздачи: 24/7 (круглосуточно) (минимум до появления первых 3-5 скачавших)
[Профиль] [ЛС]
Показать сообщения:    
Ответить на тему

Текущее время: 29-Фев 13:09

Часовой пояс: UTC ± 0



Вы не можете начинать темы
Вы не можете отвечать на сообщения
Вы не можете редактировать свои сообщения
Вы не можете удалять свои сообщения
Вы не можете голосовать в опросах
Вы не можете прикреплять файлы к сообщениям
Вы не можете скачивать файлы

[  Время выполнения: 0,033 сек  |  MySQL: 0,003 сек (10%) · 3 запр.  |  GZIP выкл  |  Память: 422,29 KB / 1,72 MB / 1,32 MB  |  Лимит: 13 15 17  ]