Эффект химеры / The Chimera Effect (2022) WEBRip [H.264/1080p] [MVO] [AD]

Ответить на тему
 
Автор Сообщение

admin ®

Пол: Не указан

Стаж: 5 месяца 1 день

Сообщений: 10110

Создавать темы 30-Янв-2024 17:47

[Цитировать]

Эффект химеры / The Chimera Effect (2022) WEBRip [H.264/1080p]- Производство: США / Common Ground Media.
Жанр: триллер
Режиссер: Карлос Батлер
Актеры: Джеки Мур, Джина Гальего, Стэйси Асвад, Джастин Брешия, Маркус Хэнсон, Shiah Luna, Ashley Nichols, Brandon E. Johnson, Aaron Oberst, Карлос Батлер
Описание:
После смерти отца жизнь Саманты Антрум начинает рушиться, потому что со своим парнем Норманом она обнаруживает скрытые до этого семейные тайны, которые могут поглотить и уничтожить их жизни.
Продолжительность: 01:22:57
Качество видео: WEBRip (1080p)
Перевод: Многоголосый любительский (AlphaProject)
Язык озвучки: Русский
Субтитры: Отсутствуют
Реклама: Присутствует баннер.
Видео: AVC/H.264, 1920x1040, ~5948 Kbps
Аудио: AC3, 2 ch, 384 Kbps

MediaInfo:

Общее
Уникальный идентификатор : 247834933892801809242364911229398337356 (0xBA7345A4BCAEEB92A66976718FFEC74C)
Полное имя : D:\NNM\Эффект химеры\The.Chimera.Effect.2022.WEBRip.1080p.mkv
Формат : Matroska
Версия формата : Version 4
Размер файла : 3,74 Гбайт
Продолжительность : 1 ч. 22 м.
Режим общего битрейта : Постоянный
Общий поток : 6 460 Кбит/сек
Дата кодирования : UTC 2023-09-05 15:08:31
Программа кодирования : mkvmerge v6.9.1 ('Blue Panther') 32bit built on Apr 18 2014 18:15:44
Библиотека кодирования : libebml v1.3.0 + libmatroska v1.4.1
Видео
Идентификатор : 1
Формат : AVC
Формат/Информация : Advanced Video Codec
Профиль формата : High@L4.1
Настройки формата : CABAC / 4 Ref Frames
Параметр CABAC формата : Да
Параметр RefFrames формата : 4 кадра
Идентификатор кодека : V_MPEG4/ISO/AVC
Продолжительность : 1 ч. 22 м.
Вид битрейта : Постоянный
Битрейт : 5 948 Кбит/сек
Номинальный битрейт : 7 000 Кбит/сек
Ширина : 1 920 пикселей
Высота : 1 040 пикселей
Соотношение сторон : 1,85:1
Режим частоты кадров : Постоянный
Частота кадров : 23,976 (24000/1001) кадра/сек
Стандарт вещания : Component
Цветовое пространство : YUV
Субдискретизация насыщенности : 4:2:0
Битовая глубина : 8 бит
Тип развёртки : Прогрессивная
Бит/(Пиксели*Кадры) : 0.124
Размер потока : 3,45 Гбайт (92%)
Библиотека кодирования : x264 core 155
Default : Нет
Forced : Нет
Цветовой диапазон : Limited
Основные цвета : BT.709
Характеристики трансфера : BT.709
Коэффициенты матрицы : BT.709
Аудио
Идентификатор : 2
Формат : AC-3
Формат/Информация : Audio Coding 3
Коммерческое название : Dolby Digital
Идентификатор кодека : A_AC3
Продолжительность : 1 ч. 22 м.
Вид битрейта : Постоянный
Битрейт : 384 Кбит/сек
Каналы : 2 канала
Channel layout : L R
Частота : 48,0 КГц
Частота кадров : 31,250 кадров/сек (1536 SPF)
Метод сжатия : С потерями
Размер потока : 228 Мбайт (6%)
Язык : Russian
Service kind : Complete Main
Default : Да
Forced : Нет
Скриншоты: Все одноименные релизы в КлубеВремя раздачи: 24/7 (до 10-ти скачавших)
[Профиль] [ЛС]
Показать сообщения:    
Ответить на тему

Текущее время: 29-Фев 13:04

Часовой пояс: UTC ± 0



Вы не можете начинать темы
Вы не можете отвечать на сообщения
Вы не можете редактировать свои сообщения
Вы не можете удалять свои сообщения
Вы не можете голосовать в опросах
Вы не можете прикреплять файлы к сообщениям
Вы не можете скачивать файлы

[  Время выполнения: 0,029 сек  |  MySQL: 0,003 сек (11%) · 3 запр.  |  GZIP выкл  |  Память: 422,29 KB / 1,72 MB / 1,32 MB  |  Лимит: 14 17 18  ]