Хурия / Houria (2022) WEB-DLRip [H.264/1080p] [MVO] [AD]

Ответить на тему
 
Автор Сообщение

admin ®

Пол: Не указан

Стаж: 4 месяца 27 дня

Сообщений: 10110

Создавать темы 30-Янв-2024 17:47

[Цитировать]

Хурия / Houria (2022) WEB-DLRip [H.264/1080p]- Производство: Алжир, Франция / Canal+ [fr], Centre National du Cinéma, Ciné, Cirta Films, France 2 Cinéma, France Télévision, High Sea Production, Ink Connection, The, Le Tax Shelter du Gouvernement Fédéral de Belgique, Les Productions du Ch'timi, Région Provence Côte d'Azur, Same Player, Scope Pictures, Shotinmars, Solar Entertainment
Жанр: драма
Режиссер: Муния Меддур
Актеры: Лина Кудри, Рашида Бракни, Надя Кейци, Амира Хильда Дуауда, Мерьем Меджкане, Zahra Manel, Doumandji, Sarah Hamdi, Sarah Guendouz, Amina Benghernaout, Camila Halima-Filali
Описание:
Хурия - молодая и талантливая танцовщица. Днем она работает уборщицей, а ночью участвует в незаконных азартных играх. Но однажды вечером, когда она крупно выиграла, на нее жестоко нападает Али, и она попадает в больницу. Ее мечты о карьере балерины рухнули. Теперь она должна принять и полюбить свое новое тело.
Продолжительность: 01:32:04
Качество видео: WEB-DLRip (1080p)
Перевод: Многоголосый профессиональный (Синема УС)
Язык озвучки: Русский
Субтитры: Отсутствуют
Реклама: Присутствует баннер.
Видео: AVC/H.264, 1920x804, ~6305 Kbps
Аудио: AC3, 2 ch, 384 Kbps

MediaInfo:

Общее
Полное имя : D:\NNM\Хурия\Houria.2023.WEB-DLRip.1080p.mkv
Формат : Matroska
Версия формата : Version 2
Размер файла : 4,39 Гбайт
Продолжительность : 1 ч. 32 м.
Режим общего битрейта : Постоянный
Общий поток : 6 825 Кбит/сек
Программа кодирования : libmatroska 1.4.1
Библиотека кодирования : SolveigMM Matroska Muxer Version 1.0.1904.23
Видео
Идентификатор : 1
Формат : AVC
Формат/Информация : Advanced Video Codec
Профиль формата : High@L4.1
Настройки формата : CABAC / 4 Ref Frames
Параметр CABAC формата : Да
Параметр RefFrames формата : 4 кадра
Идентификатор кодека : V_MPEG4/ISO/AVC
Продолжительность : 1 ч. 32 м.
Вид битрейта : Постоянный
Битрейт : 6 305 Кбит/сек
Номинальный битрейт : 7 000 Кбит/сек
Ширина : 1 920 пикселей
Высота : 804 пикселя
Соотношение сторон : 2,40:1
Режим частоты кадров : Постоянный
Частота кадров : 25,000 кадров/сек
Стандарт вещания : Component
Цветовое пространство : YUV
Субдискретизация насыщенности : 4:2:0
Битовая глубина : 8 бит
Тип развёртки : Прогрессивная
Бит/(Пиксели*Кадры) : 0.163
Размер потока : 4,06 Гбайт (92%)
Библиотека кодирования : x264 core 155
Default : Нет
Forced : Нет
Цветовой диапазон : Limited
Основные цвета : BT.709
Характеристики трансфера : BT.709
Коэффициенты матрицы : BT.709
Аудио
Идентификатор : 2
Формат : AC-3
Формат/Информация : Audio Coding 3
Коммерческое название : Dolby Digital
Идентификатор кодека : A_AC3
Продолжительность : 1 ч. 32 м.
Вид битрейта : Постоянный
Битрейт : 384 Кбит/сек
Каналы : 2 канала
Channel layout : L R
Частота : 48,0 КГц
Частота кадров : 31,250 кадров/сек (1536 SPF)
Метод сжатия : С потерями
Размер потока : 253 Мбайт (6%)
Язык : Russian
Service kind : Complete Main
Default : Нет
Forced : Нет
Скриншоты: Все одноименные релизы в КлубеВремя раздачи: 24/7 (до 10-ти скачавших)
[Профиль] [ЛС]
Показать сообщения:    
Ответить на тему

Текущее время: 25-Фев 17:27

Часовой пояс: UTC ± 0



Вы не можете начинать темы
Вы не можете отвечать на сообщения
Вы не можете редактировать свои сообщения
Вы не можете удалять свои сообщения
Вы не можете голосовать в опросах
Вы не можете прикреплять файлы к сообщениям
Вы не можете скачивать файлы

[  Время выполнения: 0,035 сек  |  MySQL: 0,004 сек (12%) · 3 запр.  |  GZIP выкл  |  Память: 422,29 KB / 1,72 MB / 1,32 MB  |  Лимит: 7 8 9  ]