Космос. Смерть. Роботы / Cosmic Chaos (2023) WEB-DLRip [H.264/720p] [Локализованный видеоряд] [PR]

Ответить на тему
 
Автор Сообщение

admin ®

Пол: Не указан

Стаж: 6 месяца 22 дня

Сообщений: 11520

Создавать темы 30-Янв-2024 17:46

[Цитировать]

Космос. Смерть. Роботы / Cosmic Chaos (2023) WEB-DLRip [H.264/720p]- Производство: Канада, США, Великобритания / Hewes Pictures
Жанр: фантастика, триллер
Режиссер: Иван Степанов, Нгуйен-Ан Нгуйен, Блэйк Саймон
Актеры: Кен Годмир, Даррен Хопвуд, Джинэнн Гуссен, Питер Синкода, Кэролайн Деверне, Кертис Берчхольт, Криста Чендли, Дэниэл Ван Томас, Пол Статман, Гленн Багвелл
Описание:
Фантастический триллер от шести режиссеров из разных стран расскажет истории о боях в виртуальной реальности, о выживании в постапокалиптической пустоши и о советском космическом корабле, подающем сигнал бедствия.
Возраст: 18+ (зрителям, достигшим 18 лет. запрещено для детей)
Релиз от: Jolan
Продолжительность: 01:27:06
Качество видео: WEB-DLRip
Перевод: Дублированный (Leff Sound)
Язык озвучки: Русский
Субтитры: отсутствуют
Видео: AVC/H.264, 1280х720, ~2850 Kbps
Аудио: AAC, 6 ch, 256 Kbps

MediaInfo:

General
Complete name : C:\Users\User\Desktop\Cosmic.Chaos.2023.WEB-DL-Rip.720p.Jolan.mp4
Format : MPEG-4
Format profile : Base Media
Codec ID : isom (isom)
File size : 1.89 GiB
Duration : 1 h 27 min
Overall bit rate mode : Variable
Overall bit rate : 3 109 kb/s
Frame rate : 24.000 FPS
Encoded date : 2023-09-05 20:12:21 UTC
Tagged date : 2023-09-05 20:12:21 UTC
Video
ID : 1
Format : AVC
Format/Info : Advanced Video Codec
Format profile : High@L4.1
Format settings : CABAC / 8 Ref Frames
Format settings, CABAC : Yes
Format settings, Reference frames : 8 frames
Codec ID : avc1
Codec ID/Info : Advanced Video Coding
Duration : 1 h 27 min
Bit rate : 2 850 kb/s
Maximum bit rate : 19.5 Mb/s
Width : 1 280 pixels
Height : 720 pixels
Display aspect ratio : 16:9
Frame rate mode : Constant
Frame rate : 24.000 FPS
Color space : YUV
Chroma subsampling : 4:2:0
Bit depth : 8 bits
Scan type : Progressive
Bits/(Pixel*Frame) : 0.129
Stream size : 1.73 GiB (92%)
Writing library : x264 core 164 r3107 a8b68eb
Encoding settings : cabac=1 / ref=8 / deblock=1:-1:-1 / analyse=0x3:0x133 / me=umh / subme=11 / psy=1 / psy_rd=1.00:0.15 / mixed_ref=1 / me_range=32 / chroma_me=1 / trellis=2 / 8x8dct=1 / cqm=0 / deadzone=21,11 / fast_pskip=0 / chroma_qp_offset=-3 / threads=22 / lookahead_threads=1 / sliced_threads=0 / nr=0 / decimate=1 / interlaced=0 / bluray_compat=0 / constrained_intra=0 / bframes=3 / b_pyramid=2 / b_adapt=2 / b_bias=0 / direct=3 / weightb=1 / open_gop=0 / weightp=2 / keyint=240 / keyint_min=24 / scenecut=40 / intra_refresh=0 / rc_lookahead=60 / rc=2pass / mbtree=1 / bitrate=2850 / ratetol=1.0 / qcomp=0.60 / qpmin=0 / qpmax=69 / qpstep=4 / cplxblur=20.0 / qblur=0.5 / vbv_maxrate=62500 / vbv_bufsize=78125 / nal_hrd=none / filler=0 / ip_ratio=1.40 / aq=1:1.00
Encoded date : 2023-09-05 20:01:27 UTC
Tagged date : 2023-09-05 20:12:36 UTC
Codec configuration box : avcC
Audio
ID : 2
Format : AAC LC
Format/Info : Advanced Audio Codec Low Complexity
Codec ID : mp4a-40-2
Duration : 1 h 27 min
Bit rate mode : Variable
Bit rate : 256 kb/s
Maximum bit rate : 272 kb/s / 256 kb/s
Channel(s) : 6 channels
Channel layout : C L R Ls Rs LFE
Sampling rate : 48.0 kHz
Frame rate : 46.875 FPS (1024 SPF)
Compression mode : Lossy
Stream size : 160 MiB (8%)
Default : Yes
Alternate group : 1
Tagged date : 2023-09-05 20:12:36 UTC
Скриншоты:
Все одноименные релизы в КлубеВремя раздачи: 24/7 (круглосуточно) (минимум до появления первых 3-5 скачавших)
[Профиль] [ЛС]
Показать сообщения:    
Ответить на тему

Текущее время: 20-Апр 19:57

Часовой пояс: UTC ± 0



Вы не можете начинать темы
Вы не можете отвечать на сообщения
Вы не можете редактировать свои сообщения
Вы не можете удалять свои сообщения
Вы не можете голосовать в опросах
Вы не можете прикреплять файлы к сообщениям
Вы не можете скачивать файлы

[  Время выполнения: 0,037 сек  |  MySQL: 0,004 сек (11%) · 3 запр.  |  GZIP выкл  |  Память: 422,29 KB / 1,74 MB / 1,34 MB  |  Лимит: 5 4 5  ]