Кхун Пан 3 / Khun Pan 3 / Khun Phan 3 (2023) WEB-DLRip [H.264/1080p] [DVO] [AD]

Ответить на тему
 
Автор Сообщение

admin ®

Пол: Не указан

Стаж: 6 месяца 22 дня

Сообщений: 11520

Создавать темы 30-Янв-2024 17:46

[Цитировать]

Кхун Пан 3 / Khun Pan 3 / Khun Phan 3 (2023) WEB-DLRip [H.264/1080p] - Производство: Таиланд, Камбоджа / Kongkiat Production, Sahamongkolfilm Int. Company
Жанр: боевик, триллер, фэнтези
Режиссер: Конгкиат Кхомсири
Актеры: Сонтхая Читмани, Дан Чупонг, Ананда Эверингэм, Фимонрат Фисаравабуд, Энтони Рю, Криссада Сукосол Клэпп, Намо Тонгкумнерд, Гиги Велиситат, Пакчанок Во-Онсри и др.
Описание:
Тайланд, 40е годы. В стране царит хаос и разруха, процветает коррупция. Разочаровавшись в правовой системе, многие становятся бандитами. Некоторые из них крайне опасны, так как владеют тёмным колдовством, а амулеты и татуировки делают их неуязвимыми, позволяют управлять полётом пули и волей противника.
Кхун Пану, добросовестному полицейскому и народному герою, поручено внедриться в одну из самых опасных банд, где ему предстоит задуматься над тем, что побудило этих людей стать бандитами, а его самого - служителем закона.
Релиз от: ViruseProject
Продолжительность: 02:27:20
Качество видео: WEB-DLRip 1080p
Перевод: Профессиональный двухголосый (ViruseProject)
Язык озвучки: Русский, тайский
Субтитры: Русские
Реклама: Присутствуют видео вставки рекламы
Видео: AVC/H.264, 1920x818 (2.35:1), ~4474 Kbps
Аудио 1: AC3, 2 ch, 224 Kbps - русский
Аудио 2: AC3, 2 ch, 224 Kbps - тайский

MediaInfo:

General
Unique ID : 230878267169108029279647394230938629482 (0xADB1896D5BAC5BC1B5AA3346F6D7F56A)
Complete name : Khun.Pan.3.2023.1080p.WEB-DLRip.ViruseProject.mkv
Format : Matroska
Format version : Version 4
File size : 5.07 GiB
Duration : 2 h 27 min
Overall bit rate : 4 924 kb/s
Encoded date : UTC 2023-09-06 06:43:44
Writing application : mkvmerge v8.3.0 ('Over the Horizon') 64bit
Writing library : libebml v1.3.1 + libmatroska v1.4.2
Video
ID : 1
Format : AVC
Format/Info : Advanced Video Codec
Format profile : High@L4
Format settings : CABAC / 4 Ref Frames
Format settings, CABAC : Yes
Format settings, Reference frames : 4 frames
Codec ID : V_MPEG4/ISO/AVC
Duration : 2 h 27 min
Bit rate : 4 474 kb/s
Width : 1 920 pixels
Height : 818 pixels
Display aspect ratio : 2.35:1
Frame rate mode : Constant
Frame rate : 25.000 FPS
Color space : YUV
Chroma subsampling : 4:2:0
Bit depth : 8 bits
Scan type : Progressive
Bits/(Pixel*Frame) : 0.114
Stream size : 4.60 GiB (91%)
Language : English
Default : Yes
Forced : No
Color range : Limited
Color primaries : BT.709
Transfer characteristics : BT.709
Matrix coefficients : BT.709
Audio #1
ID : 2
Format : AC-3
Format/Info : Audio Coding 3
Commercial name : Dolby Digital
Codec ID : A_AC3
Duration : 2 h 27 min
Bit rate mode : Constant
Bit rate : 224 kb/s
Channel(s) : 2 channels
Channel layout : L R
Sampling rate : 48.0 kHz
Frame rate : 31.250 FPS (1536 SPF)
Compression mode : Lossy
Stream size : 236 MiB (5%)
Title : ViruseProject
Language : Russian
Service kind : Complete Main
Default : Yes
Forced : No
Audio #2
ID : 3
Format : AC-3
Format/Info : Audio Coding 3
Commercial name : Dolby Digital
Codec ID : A_AC3
Duration : 2 h 27 min
Bit rate mode : Constant
Bit rate : 224 kb/s
Channel(s) : 2 channels
Channel layout : L R
Sampling rate : 48.0 kHz
Frame rate : 31.250 FPS (1536 SPF)
Compression mode : Lossy
Stream size : 236 MiB (5%)
Language : Thai
Service kind : Complete Main
Default : No
Forced : No
Text
ID : 4
Format : UTF-8
Codec ID : S_TEXT/UTF8
Codec ID/Info : UTF-8 Plain Text
Duration : 2 h 21 min
Bit rate : 55 b/s
Count of elements : 1484
Stream size : 57.0 KiB (0%)
Title : ViruseProject
Language : Russian
Default : No
Forced : No
Скриншоты:
Все одноименные релизы в КлубеВремя раздачи: мультитрекерная раздача
[Профиль] [ЛС]
Показать сообщения:    
Ответить на тему

Текущее время: 20-Апр 19:19

Часовой пояс: UTC ± 0



Вы не можете начинать темы
Вы не можете отвечать на сообщения
Вы не можете редактировать свои сообщения
Вы не можете удалять свои сообщения
Вы не можете голосовать в опросах
Вы не можете прикреплять файлы к сообщениям
Вы не можете скачивать файлы

[  Время выполнения: 0,039 сек  |  MySQL: 0,003 сек (8%) · 3 запр.  |  GZIP выкл  |  Память: 422,29 KB / 1,74 MB / 1,34 MB  |  Лимит: 8 10 11  ]