Кхун Пан 3 / Khun Pan 3 / Khun Phan 3 (2023) WEB-DLRip [DVO] [AD]

Ответить на тему
 
Автор Сообщение

admin ®

Пол: Не указан

Стаж: 5 месяца 1 день

Сообщений: 10110

Создавать темы 30-Янв-2024 17:46

[Цитировать]

Кхун Пан 3 / Khun Pan 3 / Khun Phan 3 (2023) WEB-DLRip - Производство: Таиланд, Камбоджа / Saha Mongkul Film Production
Жанр: боевик, триллер, фэнтези
Режиссер: Конгкиат Кхомсири
Актеры: Сонтхая Читмани, Дан Чупонг, Ананда Эверингэм, Фимонрат Фисаравабуд, Энтони Рю, Криссада Сукосол Клэпп, Намо Тонгкумнерд, Гиги Велиситат, Пакчанок Во-Онсри и др.
Описание:
Тайланд, 40е годы. В стране царит хаос и разруха, процветает коррупция. Разочаровавшись в правовой системе, многие становятся бандитами. Некоторые из них крайне опасны, так как владеют тёмным колдовством, а амулеты и татуировки делают их неуязвимыми, позволяют управлять полётом пули и волей противника.
Кхун Пану, добросовестному полицейскому и народному герою, поручено внедриться в одну из самых опасных банд, где ему предстоит задуматься над тем, что побудило этих людей стать бандитами, а его самого - служителем закона.
Релиз от: ViruseProject
Продолжительность: 02:27:20
Качество видео: WEB-DLRip
Перевод: Профессиональный двухголосый (ViruseProject)
Язык озвучки: Русский, тайский
Субтитры: Русские (отдельно)
Реклама: Присутствуют видео вставки рекламы
Видео: XviD, 720x304 (2.40:1), ~1490 Kbps
Аудио 1: АС3, 2 ch, 192 Kbps - русский
Аудио 2: АС3, 2 ch, 192 Kbps - тайский

MediaInfo:

General
Complete name : Khun.Pan.3.2023.WEB-DLRip.ViruseProject.avi
Format : AVI
Format/Info : Audio Video Interleave
File size : 1.94 GiB
Duration : 2 h 27 min
Overall bit rate : 1 888 kb/s
Writing application : VirtualDubMod 1.5.10.2 (build 2540/release)
Writing library : VirtualDubMod build 2540/release
Video
ID : 0
Format : MPEG-4 Visual
Format profile : Advanced Simple@L5
Format settings : BVOP2
Format settings, BVOP : 2
Format settings, QPel : No
Format settings, GMC : No warppoints
Format settings, Matrix : Default (H.263)
Codec ID : XVID
Codec ID/Hint : XviD
Duration : 2 h 27 min
Bit rate : 1 490 kb/s
Width : 720 pixels
Height : 304 pixels
Display aspect ratio : 2.40:1
Frame rate : 25.000 FPS
Color space : YUV
Chroma subsampling : 4:2:0
Bit depth : 8 bits
Scan type : Progressive
Compression mode : Lossy
Bits/(Pixel*Frame) : 0.272
Stream size : 1.53 GiB (79%)
Writing library : XviD 69
Audio #1
ID : 1
Format : AC-3
Format/Info : Audio Coding 3
Commercial name : Dolby Digital
Codec ID : 2000
Duration : 2 h 27 min
Bit rate mode : Constant
Bit rate : 192 kb/s
Channel(s) : 2 channels
Channel layout : L R
Sampling rate : 48.0 kHz
Frame rate : 31.250 FPS (1536 SPF)
Compression mode : Lossy
Stream size : 202 MiB (10%)
Alignment : Split across interleaves
Interleave, duration : 40 ms (1.00 video frame)
Interleave, preload duration : 500 ms
Service kind : Complete Main
Audio #2
ID : 2
Format : AC-3
Format/Info : Audio Coding 3
Commercial name : Dolby Digital
Codec ID : 2000
Duration : 2 h 27 min
Bit rate mode : Constant
Bit rate : 192 kb/s
Channel(s) : 2 channels
Channel layout : L R
Sampling rate : 48.0 kHz
Frame rate : 31.250 FPS (1536 SPF)
Compression mode : Lossy
Stream size : 202 MiB (10%)
Alignment : Split across interleaves
Interleave, duration : 40 ms (1.00 video frame)
Interleave, preload duration : 500 ms
Service kind : Complete Main
Скриншоты:
Все одноименные релизы в КлубеВремя раздачи: мультитрекерная раздача
[Профиль] [ЛС]
Показать сообщения:    
Ответить на тему

Текущее время: 29-Фев 11:55

Часовой пояс: UTC ± 0



Вы не можете начинать темы
Вы не можете отвечать на сообщения
Вы не можете редактировать свои сообщения
Вы не можете удалять свои сообщения
Вы не можете голосовать в опросах
Вы не можете прикреплять файлы к сообщениям
Вы не можете скачивать файлы

[  Время выполнения: 0,035 сек  |  MySQL: 0,003 сек (7%) · 3 запр.  |  GZIP выкл  |  Память: 422,29 KB / 1,74 MB / 1,34 MB  |  Лимит: 9 9 10  ]