Гран туризмо / Gran Turismo (2023) скачать торрент

Ответить на тему
 
Автор Сообщение

admin ®

Пол: Не указан

Стаж: 7 месяца 26 дня

Сообщений: 11520

Создавать темы 03-Окт-2023 19:07

[Цитировать]

Гран туризмо / Gran Turismo (2023) скачать торрент - Производство: США, Япония / Columbia Pictures, PlayStation Productions
Жанр: боевик, драма, приключения, спорт
Режиссер: Нил Бломкамп
Актеры: Арчи Мадекве, Орландо Блум, Дэвид Харбор, Никхил Пармар, Мэйв Куртье-Лилли, Дэниэл Пуиг, Джимон Хонсу, Джери Халлиуэлл, Даррен Барнет, Джоша Страдовски
Описание:
Заядлый геймер Янн Марденборо, несостоявшийся автогонщик Джейк Солтер и идейный маркетолог Дэнни Мур вместе рискнут всем, чтобы найти своё место в самом элитном виде спорта.
Возраст: 18+ (зрителям, достигшим 18 лет. запрещено для детей)
Рейтинг MPAA: PG-13 (детям до 13 лет просмотр нежелателен)
Продолжительность: 02:14:15
Качество видео: WEB-DL
Перевод: Дублированный (MovieDalen), Профессиональный многоголосый (Jaskier, TVShows)
Язык озвучки: русский, украинский, английский
Субтитры: русские (forced, full), украинские (forced, full), английские (forced, full, SDH)
Видео: HEVC/H.265, 3840x2160, 24,6 Mbps
Аудио 1: AC3, 6 ch, 384 Kbps, русский (DUB, MovieDalen)
Аудио 2: AC3, 6 ch, 448 Kbps, русский (MVO, Jaskier)
Аудио 3: AC3, 6 ch, 448 Kbps, русский (MVO, TVShows)
Аудио 4: E-AC3, 6 ch, 384 Kbps, украинский (DUB, LeDoyen)
Аудио 5: E-AC3 JOC, 6 ch, 768 Kbps, английский

MediaInfo:

General
Unique ID : 300855600605738836549143004507452889261 (0xE256AE56F458184511DC3E6EE9F658AD)
Complete name : H:\UHD\Гран туризмо.2023.WEB-DL.2160p.SDR.mkv
Format : Matroska
Format version : Version 4
File size : 25.3 GiB
Duration : 2 h 14 min
Overall bit rate : 27.0 Mb/s
Frame rate : 23.976 FPS
Encoded date : 2023-10-02 17:03:03 UTC
Writing application : mkvmerge v79.0 ('Funeral Pyres') 64-bit
Writing library : libebml v1.4.4 + libmatroska v1.7.1
Attachments : poster.jpg
Video
ID : 1
Format : HEVC
Format/Info : High Efficiency Video Coding
Format profile : Main 10@L5@High
Codec ID : V_MPEGH/ISO/HEVC
Duration : 2 h 14 min
Bit rate : 24.6 Mb/s
Width : 3 840 pixels
Height : 2 160 pixels
Display aspect ratio : 16:9
Frame rate mode : Constant
Frame rate : 23.976 (24000/1001) FPS
Color space : YUV
Chroma subsampling : 4:2:0 (Type 2)
Bit depth : 10 bits
Bits/(Pixel*Frame) : 0.124
Stream size : 23.1 GiB (91%)
Language : English
Default : Yes
Forced : No
Color range : Limited
Color primaries : BT.709
Transfer characteristics : BT.709
Matrix coefficients : BT.709
Audio #1
ID : 2
Format : AC-3
Format/Info : Audio Coding 3
Commercial name : Dolby Digital
Codec ID : A_AC3
Duration : 2 h 14 min
Bit rate mode : Constant
Bit rate : 384 kb/s
Channel(s) : 6 channels
Channel layout : L R C LFE Ls Rs
Sampling rate : 48.0 kHz
Frame rate : 31.250 FPS (1536 SPF)
Compression mode : Lossy
Stream size : 369 MiB (1%)
Title : Dub, MovieDalen
Language : Russian
Service kind : Complete Main
Default : Yes
Forced : No
Audio #2
ID : 3
Format : AC-3
Format/Info : Audio Coding 3
Commercial name : Dolby Digital
Codec ID : A_AC3
Duration : 2 h 14 min
Bit rate mode : Constant
Bit rate : 448 kb/s
Channel(s) : 6 channels
Channel layout : L R C LFE Ls Rs
Sampling rate : 48.0 kHz
Frame rate : 31.250 FPS (1536 SPF)
Compression mode : Lossy
Stream size : 430 MiB (2%)
Title : MVO, Jaskier
Language : Russian
Service kind : Complete Main
Default : No
Forced : No
Audio #3
ID : 4
Format : AC-3
Format/Info : Audio Coding 3
Commercial name : Dolby Digital
Codec ID : A_AC3
Duration : 2 h 14 min
Bit rate mode : Constant
Bit rate : 448 kb/s
Channel(s) : 6 channels
Channel layout : L R C LFE Ls Rs
Sampling rate : 48.0 kHz
Frame rate : 31.250 FPS (1536 SPF)
Compression mode : Lossy
Stream size : 430 MiB (2%)
Title : MVO, TVShows
Language : Russian
Service kind : Complete Main
Default : No
Forced : No
Audio #4
ID : 5
Format : E-AC-3
Format/Info : Enhanced AC-3
Commercial name : Dolby Digital Plus
Codec ID : A_EAC3
Duration : 2 h 14 min
Bit rate mode : Constant
Bit rate : 384 kb/s
Channel(s) : 6 channels
Channel layout : L R C LFE Ls Rs
Sampling rate : 48.0 kHz
Frame rate : 31.250 FPS (1536 SPF)
Compression mode : Lossy
Stream size : 369 MiB (1%)
Title : Dub, LeDoyen
Language : Ukrainian
Service kind : Complete Main
Default : No
Forced : No
Audio #5
ID : 6
Format : E-AC-3 JOC
Format/Info : Enhanced AC-3 with Joint Object Coding
Commercial name : Dolby Digital Plus with Dolby Atmos
Codec ID : A_EAC3
Duration : 2 h 14 min
Bit rate mode : Constant
Bit rate : 768 kb/s
Channel(s) : 6 channels
Channel layout : L R C LFE Ls Rs
Sampling rate : 48.0 kHz
Frame rate : 31.250 FPS (1536 SPF)
Compression mode : Lossy
Stream size : 738 MiB (3%)
Language : English
Service kind : Complete Main
Default : No
Forced : No
Complexity index : 16
Number of dynamic objects : 15
Bed channel count : 1 channel
Bed channel configuration : LFE
Text #1
ID : 7
Format : UTF-8
Codec ID : S_TEXT/UTF8
Codec ID/Info : UTF-8 Plain Text
Duration : 1 h 56 min
Bit rate : 2 b/s
Frame rate : 0.009 FPS
Count of elements : 62
Stream size : 2.16 KiB (0%)
Title : forced
Language : Russian
Default : Yes
Forced : No
Text #2
ID : 8
Format : UTF-8
Codec ID : S_TEXT/UTF8
Codec ID/Info : UTF-8 Plain Text
Duration : 2 h 6 min
Bit rate : 87 b/s
Frame rate : 0.218 FPS
Count of elements : 1661
Stream size : 81.4 KiB (0%)
Title : full
Language : Russian
Default : No
Forced : No
Text #3
ID : 9
Format : UTF-8
Codec ID : S_TEXT/UTF8
Codec ID/Info : UTF-8 Plain Text
Duration : 1 h 55 min
Bit rate : 3 b/s
Frame rate : 0.012 FPS
Count of elements : 86
Stream size : 2.77 KiB (0%)
Title : forced
Language : Ukrainian
Default : No
Forced : No
Text #4
ID : 10
Format : UTF-8
Codec ID : S_TEXT/UTF8
Codec ID/Info : UTF-8 Plain Text
Duration : 2 h 12 min
Bit rate : 81 b/s
Frame rate : 0.208 FPS
Count of elements : 1657
Stream size : 79.5 KiB (0%)
Title : full
Language : Ukrainian
Default : No
Forced : No
Text #5
ID : 11
Format : UTF-8
Codec ID : S_TEXT/UTF8
Codec ID/Info : UTF-8 Plain Text
Duration : 14 min 53 s
Bit rate : 1 b/s
Frame rate : 0.006 FPS
Count of elements : 5
Stream size : 204 Bytes (0%)
Title : forced
Language : English
Default : No
Forced : No
Text #6
ID : 12
Format : UTF-8
Codec ID : S_TEXT/UTF8
Codec ID/Info : UTF-8 Plain Text
Duration : 2 h 1 min
Bit rate : 57 b/s
Frame rate : 0.208 FPS
Count of elements : 1519
Stream size : 51.5 KiB (0%)
Title : full
Language : English
Default : No
Forced : No
Text #7
ID : 13
Format : UTF-8
Codec ID : S_TEXT/UTF8
Codec ID/Info : UTF-8 Plain Text
Duration : 2 h 13 min
Bit rate : 71 b/s
Frame rate : 0.302 FPS
Count of elements : 2411
Stream size : 69.5 KiB (0%)
Title : SDH
Language : English
Default : No
Forced : No
Menu
00:00:00.000 : en:Studio Logos
00:01:08.980 : en:Scene 2
00:02:08.980 : en:Title Sequence
00:02:24.980 : en:Scene 4
00:03:38.980 : en:Scene 5
00:04:21.980 : en:Scene 6
00:05:29.980 : en:Scene 7
00:06:06.980 : en:Scene 8
00:08:15.980 : en:Scene 9
00:08:21.980 : en:Scene 10
00:09:14.980 : en:Scene 11
00:09:52.980 : en:Scene 12
00:10:59.980 : en:Scene 13
00:13:01.980 : en:Scene 14
00:14:53.980 : en:Scene 15
00:16:43.980 : en:Scene 16
00:16:59.980 : en:Scene 17
00:17:50.980 : en:Scene 18
00:18:53.980 : en:Scene 19
00:19:31.980 : en:Scene 20
00:20:37.980 : en:Scene 21
00:23:05.980 : en:Scene 22
00:25:39.980 : en:Scene 23
00:27:07.980 : en:Scene 24
00:29:41.980 : en:Scene 25
00:30:41.980 : en:Scene 26
00:33:58.980 : en:Scene 27
00:38:27.980 : en:Scene 28
00:39:45.980 : en:Scene 29
00:40:34.980 : en:Scene 30
00:42:40.980 : en:Scene 31
00:43:13.980 : en:Scene 32
00:44:09.980 : en:Scene 33
00:52:37.980 : en:Scene 34
00:53:16.980 : en:Scene 35
00:55:13.980 : en:Scene 36
00:56:11.980 : en:Scene 37
00:57:44.980 : en:Scene 38
01:03:43.980 : en:Scene 39
01:04:56.980 : en:Scene 40
01:06:35.980 : en:Scene 41
01:12:28.980 : en:Scene 42
01:15:06.980 : en:Scene 43
01:15:53.980 : en:Scene 44
01:17:39.980 : en:Scene 45
01:19:33.980 : en:Scene 46
01:20:13.980 : en:Scene 47
01:20:54.980 : en:Scene 48
01:25:38.980 : en:Scene 49
01:28:01.980 : en:Scene 50
01:30:29.980 : en:Scene 51
01:36:05.980 : en:Scene 52
01:38:21.980 : en:Scene 53
01:39:39.980 : en:Scene 54
01:40:29.980 : en:Scene 55
01:42:41.980 : en:Scene 56
01:43:22.980 : en:Scene 57
01:43:35.980 : en:Scene 58
01:46:02.980 : en:Scene 59
01:46:41.980 : en:Scene 60
01:50:50.980 : en:Scene 61
01:54:06.980 : en:Scene 62
01:55:39.980 : en:Scene 63
01:57:43.980 : en:Scene 64
02:05:30.980 : en:Acknowledgement
02:06:22.980 : en:End Credits
Скриншоты:
Все одноименные релизы в КлубеВремя раздачи: 24/7 (мультитрекер) (минимум до появления первых 3-5 скачавших)
[Профиль] [ЛС]
Показать сообщения:    
Ответить на тему

Текущее время: 24-Май 13:39

Часовой пояс: UTC ± 0



Вы не можете начинать темы
Вы не можете отвечать на сообщения
Вы не можете редактировать свои сообщения
Вы не можете удалять свои сообщения
Вы не можете голосовать в опросах
Вы не можете прикреплять файлы к сообщениям
Вы не можете скачивать файлы

[  Время выполнения: 0,030 сек  |  MySQL: 0,003 сек (10%) · 3 запр.  |  GZIP выкл  |  Память: 422,49 KB / 1,74 MB / 1,37 MB  |  Лимит: 15 15 14  ]