Вызов (2023) WEBRip [H.264/720p-LQ] [PR]

Ответить на тему
 
Автор Сообщение

admin ®

Пол: Не указан

Стаж: 4 месяца 27 дня

Сообщений: 10110

Создавать темы 30-Янв-2024 17:46

[Цитировать]

Вызов (2023) WEBRip [H.264/720p-LQ]- Производство: Россия, Госкорпорация «Роскосмос», Первый канал, START, Yellow, Black & White
Жанр: драма
Режиссер: Клим Шипенко
Актеры: Юлия Пересильд, Милош Бикович, Владимир Машков, Олег Новицкий, Антон Шкаплеров, Пётр Дубров, Елена Валюшкина, Варвара Володина, Андрей Щепочкин, Александр Балуев
Описание:
Торакальный хирург Женя за месяц должна подготовиться к космическому полету, чтобы отправиться на МКС и спасти заболевшего космонавта. Ей придётся преодолеть неуверенность и страхи, а также провести сложнейшую операцию в условиях невесомости, от которой зависят шансы космонавта вернуться на Землю живым.
Возраст: 12+ (зрителям, достигшим 12 лет)
Релиз от: Jolan
Продолжительность: 02:43:35
Качество видео: WEBRip
Перевод: Не требуется (Русский)
Язык озвучки: Русский
Субтитры: отсутствуют
Видео: AVC/H.264, 1280х674, ~1721 Kbps
Аудио: AAC, 6 ch, 256 Kbps

MediaInfo:

General
Complete name : C:\Users\User\Desktop\Vizov.2023.WEB-DL-Rip.720p.Jolan.Mp4
Format : MPEG-4
Format profile : Base Media
Codec ID : isom (isom)
File size : 2.26 GiB
Duration : 2 h 43 min
Overall bit rate mode : Variable
Overall bit rate : 1 981 kb/s
Frame rate : 24.000 FPS
Encoded date : 2023-09-05 16:16:47 UTC
Tagged date : 2023-09-05 16:16:47 UTC
Writing application : By Jolan
Video
ID : 1
Format : AVC
Format/Info : Advanced Video Codec
Format profile : High@L4.1
Format settings : CABAC / 8 Ref Frames
Format settings, CABAC : Yes
Format settings, Reference frames : 8 frames
Codec ID : avc1
Codec ID/Info : Advanced Video Coding
Duration : 2 h 43 min
Bit rate : 1 721 kb/s
Maximum bit rate : 17.4 Mb/s
Width : 1 280 pixels
Height : 674 pixels
Display aspect ratio : 1.899
Frame rate mode : Constant
Frame rate : 24.000 FPS
Color space : YUV
Chroma subsampling : 4:2:0
Bit depth : 8 bits
Scan type : Progressive
Bits/(Pixel*Frame) : 0.083
Stream size : 1.97 GiB (87%)
Writing library : x264 core 164 r3107 a8b68eb
Encoding settings : cabac=1 / ref=8 / deblock=1:-1:-1 / analyse=0x3:0x133 / me=umh / subme=9 / psy=1 / psy_rd=1.00:0.15 / mixed_ref=1 / me_range=32 / chroma_me=1 / trellis=2 / 8x8dct=1 / cqm=0 / deadzone=21,11 / fast_pskip=0 / chroma_qp_offset=-3 / threads=21 / lookahead_threads=1 / sliced_threads=0 / nr=0 / decimate=1 / interlaced=0 / bluray_compat=0 / constrained_intra=0 / bframes=3 / b_pyramid=2 / b_adapt=2 / b_bias=0 / direct=3 / weightb=1 / open_gop=0 / weightp=2 / keyint=240 / keyint_min=24 / scenecut=40 / intra_refresh=0 / rc=cqp / mbtree=0 / qp=22 / ip_ratio=1.40 / pb_ratio=1.30 / aq=0
Encoded date : 2023-09-05 14:42:58 UTC
Tagged date : 2023-09-05 16:17:05 UTC
Codec configuration box : avcC
Audio
ID : 2
Format : AAC LC
Format/Info : Advanced Audio Codec Low Complexity
Codec ID : mp4a-40-2
Duration : 2 h 43 min
Bit rate mode : Variable
Bit rate : 256 kb/s
Maximum bit rate : 267 kb/s / 256 kb/s
Channel(s) : 6 channels
Channel layout : C L R Ls Rs LFE
Sampling rate : 48.0 kHz
Frame rate : 46.875 FPS (1024 SPF)
Compression mode : Lossy
Stream size : 300 MiB (13%)
Default : Yes
Alternate group : 1
Tagged date : 2023-09-05 16:17:05 UTC
Скриншоты:
Все одноименные релизы в КлубеВремя раздачи: 24/7 (круглосуточно) (минимум до появления первых 3-5 скачавших)
[Профиль] [ЛС]
Показать сообщения:    
Ответить на тему

Текущее время: 25-Фев 19:30

Часовой пояс: UTC ± 0



Вы не можете начинать темы
Вы не можете отвечать на сообщения
Вы не можете редактировать свои сообщения
Вы не можете удалять свои сообщения
Вы не можете голосовать в опросах
Вы не можете прикреплять файлы к сообщениям
Вы не можете скачивать файлы

[  Время выполнения: 0,030 сек  |  MySQL: 0,003 сек (10%) · 3 запр.  |  GZIP выкл  |  Память: 422,29 KB / 1,72 MB / 1,32 MB  |  Лимит: 10 9 12  ]