Отзвуки прошлого / The Old Way (2022) BDRip [H.264/1080p]

Ответить на тему
 
Автор Сообщение

admin ®

Пол: Не указан

Стаж: 4 месяца 23 дня

Сообщений: 10110

Создавать темы 30-Янв-2024 17:45

[Цитировать]

Отзвуки прошлого / The Old Way (2022) BDRip [H.264/1080p]- Производство: США / Intercut Capital, Saturn Films, Tri-Fold Pictures
Жанр: боевик, драма, вестерн
Режиссер: Бретт Доноху
Актеры: Николас Кейдж, Ноа Ле Грос, Ник Сирси, Райан Кира Армстронг, Клинт Ховард, Керри Кнуппе, Абрахам Бенруби, Шайло Фернандес, Бо Линнелл, Скайлер Стоун
Описание: Колтон Бриггс некогда сильно оступился, и теперь прошлое его настигло. Опасность грозит близким людям, поэтому Бриггс должен спасти самое дорогое — свою семью, а с прошлым распрощаться навсегда.
Возраст: 16+ (зрителям, достигшим 16 лет)
Рейтинг MPAA: R (лицам до 17 лет обязательно присутствие взрослого)
Продолжительность: 01:35:27
Качество видео: BDRip (1080p)
Перевод: Дублированный (Мосфильм-Мастер)
Язык озвучки: Русский, английский
Субтитры: Русские, английские
Видео: AVC/H.264, 1920x806, 13.5 Mbps
Аудио 1: AC3, 6 ch, 448 Kbps - Русский (Dub, Мосфильм-Мастер)
Аудио 2: E-AC3, 6 ch, 448 Kbps - Русский (Dub, Мосфильм-Мастер)
Аудио 3: AC3, 6 ch, 640 Kbps - Английский (Оригинал)

Mediainfo:

Общее
Уникальный идентификатор : 244816720532562941658858619819979789337 (0xB82DFC3C5C64CD3E8C5F16767A295419)
Полное имя : D:\NNM\Отзвуки прошлого\Otzvuki.proshlogo.2023.BDRip.1080p.ELEKTRI4KA.UNIONGANG.mkv
Формат : Matroska
Версия формата : Version 4
Размер файла : 10,0 Гбайт
Продолжительность : 1 ч. 35 м.
Общий поток : 15,1 Мбит/сек
Название фильма : Otzvuki.proshlogo.2023.BDRip.1080p.ELEKTRI4KA.UNIONGANG.
Дата кодирования : UTC 2023-02-15 11:50:29
Программа кодирования : mkvmerge v8.3.0 ('Over the Horizon') 64bit
Библиотека кодирования : libebml v1.3.1 + libmatroska v1.4.2
Видео
Идентификатор : 1
Формат : AVC
Формат/Информация : Advanced Video Codec
Профиль формата : High@L4.1
Настройки формата : CABAC / 5 Ref Frames
Параметр CABAC формата : Да
Параметр RefFrames формата : 5 кадров
Идентификатор кодека : V_MPEG4/ISO/AVC
Продолжительность : 1 ч. 35 м.
Битрейт : 13,5 Мбит/сек
Ширина : 1 920 пикселей
Высота : 806 пикселей
Соотношение сторон : 2,40:1
Режим частоты кадров : Постоянный
Частота кадров : 23,976 (24000/1001) кадра/сек
Цветовое пространство : YUV
Субдискретизация насыщенности : 4:2:0
Битовая глубина : 8 бит
Тип развёртки : Прогрессивная
Бит/(Пиксели*Кадры) : 0.364
Размер потока : 9,01 Гбайт (90%)
Библиотека кодирования : x264 core 157 r2938 2b00a84 TnP@MTeam Mod
Настройки программы : cabac=1 / ref=5 / deblock=1:-3:-3 / analyse=0x3:0x133 / me=umh / subme=10 / psy=1 / psy_rd=1.05:0.00 / mixed_ref=1 / me_range=32 / chroma_me=1 / trellis=2 / 8x8dct=1 / cqm=0 / deadzone=21,11 / fast_pskip=0 / chroma_qp_offset=-2 / threads=12 / lookahead_threads=2 / sliced_threads=0 / nr=0 / decimate=0 / interlaced=0 / bluray_compat=0 / constrained_intra=0 / bframes=8 / b_pyramid=2 / b_adapt=2 / b_bias=0 / direct=3 / weightb=1 / open_gop=0 / weightp=2 / keyint=250 / keyint_min=24 / scenecut=40 / intra_refresh=0 / rc_lookahead=250 / rc=crf / mbtree=0 / crf=16.8 / qcomp=0.60 / qpmin=0 / qpmax=69 / qpstep=4 / vbv_maxrate=62500 / vbv_bufsize=78125 / crf_max=0.0 / nal_hrd=none / filler=0 / ip_ratio=1.30 / pb_ratio=1.20 / aq=3:0.80
Язык : English
Default : Нет
Forced : Нет
Цветовой диапазон : Limited
Основные цвета : BT.709
Коэффициенты матрицы : BT.709
Аудио #1
Идентификатор : 2
Формат : AC-3
Формат/Информация : Audio Coding 3
Коммерческое название : Dolby Digital
Идентификатор кодека : A_AC3
Продолжительность : 1 ч. 35 м.
Вид битрейта : Постоянный
Битрейт : 448 Кбит/сек
Каналы : 6 каналов
Channel layout : L R C LFE Ls Rs
Частота : 48,0 КГц
Частота кадров : 31,250 кадров/сек (1536 SPF)
Метод сжатия : С потерями
Размер потока : 306 Мбайт (3%)
Заголовок : DUB AC3 (Mosfilm-Master)
Язык : Russian
Service kind : Complete Main
Default : Да
Forced : Да
Аудио #2
Идентификатор : 3
Формат : E-AC-3
Формат/Информация : Enhanced AC-3
Коммерческое название : Dolby Digital Plus
Идентификатор кодека : A_EAC3
Продолжительность : 1 ч. 35 м.
Вид битрейта : Постоянный
Битрейт : 448 Кбит/сек
Каналы : 6 каналов
Channel layout : L R C LFE Ls Rs
Частота : 48,0 КГц
Частота кадров : 31,250 кадров/сек (1536 SPF)
Метод сжатия : С потерями
Размер потока : 306 Мбайт (3%)
Заголовок : DUB E-AC3 (Mosfilm-Master)
Язык : Russian
Service kind : Complete Main
Default : Нет
Forced : Нет
Аудио #3
Идентификатор : 4
Формат : AC-3
Формат/Информация : Audio Coding 3
Коммерческое название : Dolby Digital
Идентификатор кодека : A_AC3
Продолжительность : 1 ч. 35 м.
Вид битрейта : Постоянный
Битрейт : 640 Кбит/сек
Каналы : 6 каналов
Channel layout : L R C LFE Ls Rs
Частота : 48,0 КГц
Частота кадров : 31,250 кадров/сек (1536 SPF)
Метод сжатия : С потерями
Размер потока : 437 Мбайт (4%)
Заголовок : Original
Язык : English
Service kind : Complete Main
Default : Нет
Forced : Нет
Текст #1
Идентификатор : 5
Формат : UTF-8
Идентификатор кодека : S_TEXT/UTF8
Идентификатор кодека/Информация : UTF-8 Plain Text
Продолжительность : 1 ч. 29 м.
Битрейт : 83 бит/сек
Count of elements : 1242
Размер потока : 54,3 Кбайт (0%)
Заголовок : Full
Язык : Russian
Default : Нет
Forced : Нет
Текст #2
Идентификатор : 6
Формат : PGS
Режим смешивания : zlib
Идентификатор кодека : S_HDMV/PGS
Идентификатор кодека/Информация : Picture based subtitle format used on BDs/HD-DVDs
Продолжительность : 1 ч. 29 м.
Битрейт : 19,2 Кбит/сек
Count of elements : 2164
Размер потока : 12,3 Мбайт (0%)
Язык : English
Default : Нет
Forced : Нет
Меню
00:00:00.000 : en:Chapter 01
00:06:40.066 : en:Chapter 02
00:14:21.110 : en:Chapter 03
00:21:16.566 : en:Chapter 04
00:27:08.877 : en:Chapter 05
00:37:08.434 : en:Chapter 06
00:42:46.355 : en:Chapter 07
00:47:54.454 : en:Chapter 08
00:53:30.373 : en:Chapter 09
00:56:46.736 : en:Chapter 10
00:58:18.203 : en:Chapter 11
01:06:38.536 : en:Chapter 12
01:11:39.545 : en:Chapter 13
01:18:24.658 : en:Chapter 14
01:22:39.871 : en:Chapter 15
01:27:15.897 : en:Chapter 16
Скриншоты:
Все одноименные релизы в КлубеВремя раздачи: 24/7 (до 10-ти скачавших)
[Профиль] [ЛС]
Показать сообщения:    
Ответить на тему

Текущее время: 22-Фев 00:21

Часовой пояс: UTC ± 0



Вы не можете начинать темы
Вы не можете отвечать на сообщения
Вы не можете редактировать свои сообщения
Вы не можете удалять свои сообщения
Вы не можете голосовать в опросах
Вы не можете прикреплять файлы к сообщениям
Вы не можете скачивать файлы

[  Время выполнения: 0,038 сек  |  MySQL: 0,003 сек (8%) · 3 запр.  |  GZIP выкл  |  Память: 421,85 KB / 1,75 MB / 1,37 MB  |  Лимит: 15 14 12  ]