Отзвуки прошлого / The Old Way (2022) BDRip [H.264]

Ответить на тему
 
Автор Сообщение

admin ®

Пол: Не указан

Стаж: 7 месяца 26 дня

Сообщений: 11520

Создавать темы 30-Янв-2024 17:45

[Цитировать]

Отзвуки прошлого / The Old Way (2022) BDRip [H.264]- Производство: США / Intercut Capital, Saturn Films, Tri-Fold Pictures
Жанр: боевик, драма, вестерн
Режиссер: Бретт Доноху
Актеры: Николас Кейдж, Ноа Ле Грос, Ник Сирси, Райан Кира Армстронг, Клинт Ховард, Керри Кнуппе, Абрахам Бенруби, Шайло Фернандес, Бо Линнелл, Скайлер Стоун
Описание: Колтон Бриггс некогда сильно оступился, и теперь прошлое его настигло. Опасность грозит близким людям, поэтому Бриггс должен спасти самое дорогое — свою семью, а с прошлым распрощаться навсегда.
Возраст: 16+ (зрителям, достигшим 16 лет)
Рейтинг MPAA: R (лицам до 17 лет обязательно присутствие взрослого)
Продолжительность: 01:35:27
Качество видео: BDRip (AVC)
Перевод: Дублированный (Мосфильм-Мастер)
Язык озвучки: Русский
Субтитры: Русские
Видео: AVC/H.264, 1024x432, 1794 Kbps
Аудио: AC3, 6 ch, 384 Kbps

Mediainfo:

Общее
Уникальный идентификатор : 200260730545322683724876570104223605700 (0x96A8D052D9ECD662A2A3740CD8A9A3C4)
Полное имя : D:\NNM\Отзвуки прошлого\The.Old.Way.2023.BDRIp.x264.Soft-Torrent - торрент игры программы фильмы книги скачать.mkv
Формат : Matroska
Версия формата : Version 4
Размер файла : 1,45 Гбайт
Продолжительность : 1 ч. 35 м.
Общий поток : 2 178 Кбит/сек
Дата кодирования : UTC 2023-09-06 18:19:14
Программа кодирования : mkvmerge v6.9.1 ('Blue Panther') 32bit built on Apr 18 2014 18:15:44
Библиотека кодирования : libebml v1.3.0 + libmatroska v1.4.1
Видео
Идентификатор : 1
Формат : AVC
Формат/Информация : Advanced Video Codec
Профиль формата : High@L4.1
Настройки формата : CABAC / 14 Ref Frames
Параметр CABAC формата : Да
Параметр RefFrames формата : 14 кадров
Идентификатор кодека : V_MPEG4/ISO/AVC
Продолжительность : 1 ч. 35 м.
Битрейт : 1 794 Кбит/сек
Ширина : 1 024 пикселя
Высота : 432 пикселя
Соотношение сторон : 2,40:1
Режим частоты кадров : Постоянный
Частота кадров : 23,976 кадра/сек
Цветовое пространство : YUV
Субдискретизация насыщенности : 4:2:0
Битовая глубина : 8 бит
Тип развёртки : Прогрессивная
Бит/(Пиксели*Кадры) : 0.169
Размер потока : 1,17 Гбайт (80%)
Библиотека кодирования : x264 core 146 r2538 121396c
Настройки программы : cabac=1 / ref=14 / deblock=1:-3:-3 / analyse=0x3:0x113 / me=umh / subme=11 / psy=1 / psy_rd=1.00:0.15 / mixed_ref=1 / me_range=32 / chroma_me=1 / trellis=2 / 8x8dct=1 / cqm=0 / deadzone=21,11 / fast_pskip=0 / chroma_qp_offset=-3 / threads=12 / lookahead_threads=2 / sliced_threads=0 / nr=0 / decimate=0 / interlaced=0 / bluray_compat=0 / constrained_intra=0 / bframes=8 / b_pyramid=2 / b_adapt=2 / b_bias=0 / direct=1 / weightb=1 / open_gop=0 / weightp=2 / keyint=240 / keyint_min=23 / scenecut=40 / intra_refresh=0 / rc_lookahead=40 / rc=2pass / mbtree=0 / bitrate=1794 / ratetol=1.0 / qcomp=0.60 / qpmin=0 / qpmax=69 / qpstep=4 / cplxblur=20.0 / qblur=0.5 / vbv_maxrate=50000 / vbv_bufsize=62500 / nal_hrd=none / filler=0 / ip_ratio=1.40 / pb_ratio=1.30 / aq=1:0.90
Default : Да
Forced : Нет
Аудио
Идентификатор : 2
Формат : AC-3
Формат/Информация : Audio Coding 3
Коммерческое название : Dolby Digital
Идентификатор кодека : A_AC3
Продолжительность : 1 ч. 35 м.
Вид битрейта : Постоянный
Битрейт : 384 Кбит/сек
Каналы : 6 каналов
Channel layout : L R C LFE Ls Rs
Частота : 48,0 КГц
Частота кадров : 31,250 кадров/сек (1536 SPF)
Метод сжатия : С потерями
Размер потока : 262 Мбайт (18%)
Заголовок : DUB - Mosfilm-Master
Язык : Russian
Service kind : Complete Main
Default : Да
Forced : Нет
Текст
Идентификатор : 3
Формат : UTF-8
Идентификатор кодека : S_TEXT/UTF8
Идентификатор кодека/Информация : UTF-8 Plain Text
Заголовок : Full
Язык : Russian
Default : Нет
Forced : Нет
Меню
00:00:00.000 : en:Chapter 01
00:06:40.066 : en:Chapter 02
00:14:21.110 : en:Chapter 03
00:21:16.566 : en:Chapter 04
00:27:08.877 : en:Chapter 05
00:37:08.434 : en:Chapter 06
00:42:46.355 : en:Chapter 07
00:47:54.454 : en:Chapter 08
00:53:30.373 : en:Chapter 09
00:56:46.736 : en:Chapter 10
00:58:18.203 : en:Chapter 11
01:06:38.536 : en:Chapter 12
01:11:39.545 : en:Chapter 13
01:18:24.658 : en:Chapter 14
01:22:39.871 : en:Chapter 15
01:27:15.897 : en:Chapter 16
Скриншоты:
Все одноименные релизы в КлубеВремя раздачи: 24/7 (до 10-ти скачавших)
[Профиль] [ЛС]
Показать сообщения:    
Ответить на тему

Текущее время: 24-Май 13:17

Часовой пояс: UTC ± 0



Вы не можете начинать темы
Вы не можете отвечать на сообщения
Вы не можете редактировать свои сообщения
Вы не можете удалять свои сообщения
Вы не можете голосовать в опросах
Вы не можете прикреплять файлы к сообщениям
Вы не можете скачивать файлы

[  Время выполнения: 0,041 сек  |  MySQL: 0,002 сек (6%) · 3 запр.  |  GZIP выкл  |  Память: 422,29 KB / 1,74 MB / 1,36 MB  |  Лимит: 18 15 11  ]