Охота на короля / King of Killers (2023) WEB-DLRip [H.264]

Ответить на тему
 
Автор Сообщение

admin ®

Пол: Не указан

Стаж: 4 месяца 23 дня

Сообщений: 10110

Создавать темы 30-Янв-2024 17:45

[Цитировать]

Охота на короля / King of Killers (2023) WEB-DLRip - Производство: США, Канада / Alain Moussi Productions, BondIt, Buffalo 8 Productions, Channel 56 Films, Convoke Media
Жанр: боевик, триллер
Режиссер: Кевин Гревье
Продюсер: Анхель Грасиа, Джульетт Хагопиан, Майкл Хэмилтон-Райт
Актеры: Фрэнк Грилло, Стивен Дорфф, Мари Авгеропулос, Эми Гроунинг, Кевин Гревье, Шэннон Кук-Чун, Ален Мусси, Жорж Сен-Пьер, Джанни Капальди, Райан Тарран
Описание:
Для каждого наемного убийцы важнее жизни только собственная репутация. Чтобы возвыситься в мире киллеров, группа самых отчаянных и безжалостных из них решила устроить охоту на Дракоса по кличке Король. Отправившись за его головой, они не догадываются, что вскоре сами могут стать добычей и пополнить список побед опаснейшего из убийц.
Возраст: 18+ (зрителям, достигшим 18 лет. запрещено для детей)
Рейтинг MPAA: R (лицам до 17 лет обязательно присутствие взрослого)
Релиз от: Rip by vitolinform
Продолжительность: 01:30:57
Качество видео: WEB-DLRip
Перевод: Дублированный (Велес (Line)
Язык озвучки: русский, английский
Субтитры: английские (full, SDH), французские
Видео: AVC/H.264, 1024х426, ~1381 Kbps
Аудио 1: AC3, 2 ch, 192 Кbps | Русский (Dub, Велес (Line)
Аудио 2: AC3, 6 ch, 448 Кbps | Английский

MediaInfo:

avs [info]: 1024x426p 1:1 @ 24000/1001 fps (cfr)
x264 [info]: using SAR=1/1
x264 [info]: using cpu capabilities: MMX2 SSE2Fast SSSE3 SSE4.2 AVX FMA3 BMI2 AVX2
x264 [info]: profile High, level 4.1, 4:2:0, 8-bit
x264 [info]: frame I:1310 Avg QP:15.00 size: 52507
x264 [info]: frame P:31151 Avg QP:18.00 size: 14732
x264 [info]: frame B:98383 Avg QP:20.47 size: 4212
x264 [info]: consecutive B-frames: 3.2% 3.2% 8.4% 35.2% 16.3% 22.3% 4.7% 4.2% 0.9% 0.6% 1.1%
x264 [info]: mb I I16..4: 22.4% 56.0% 21.6%
x264 [info]: mb P I16..4: 6.2% 6.5% 1.0% P16..4: 39.2% 16.7% 10.6% 0.0% 0.0% skip:19.7%
x264 [info]: mb B I16..4: 0.2% 0.3% 0.1% B16..8: 32.1% 5.7% 1.9% direct: 3.5% skip:56.3% L0:41.3% L1:47.8% BI:10.9%
x264 [info]: 8x8 transform intra:49.6% inter:63.8%
x264 [info]: direct mvs spatial:100.0% temporal:0.0%
x264 [info]: coded y,uvDC,uvAC intra: 50.4% 61.6% 44.7% inter: 13.5% 19.8% 8.1%
x264 [info]: i16 v,h,dc,p: 69% 10% 6% 16%
x264 [info]: i8 v,h,dc,ddl,ddr,vr,hd,vl,hu: 15% 11% 10% 8% 12% 11% 11% 10% 11%
x264 [info]: i4 v,h,dc,ddl,ddr,vr,hd,vl,hu: 18% 12% 8% 8% 12% 12% 11% 9% 10%
x264 [info]: i8c dc,h,v,p: 46% 21% 20% 13%
x264 [info]: Weighted P-Frames: Y:12.2% UV:9.5%
x264 [info]: ref P L0: 53.2% 8.5% 15.5% 5.9% 4.0% 3.1% 2.5% 1.3% 1.1% 0.9% 0.8% 0.8% 0.7% 0.6% 0.6% 0.4%
x264 [info]: ref B L0: 78.2% 9.7% 4.5% 1.9% 1.5% 1.0% 1.0% 0.5% 0.4% 0.3% 0.3% 0.3% 0.2% 0.2% 0.1%
x264 [info]: ref B L1: 94.6% 5.4%
x264 [info]: kb/s:1381.11
encoded 130844 frames, 16.41 fps, 1381.11 kb/s
Final statistics
===========================================================
General
Unique ID : 79200786941223165616962705455937402770 (0x3B958447B0D2D02EC6046A2EC13AB792)
Complete name : D:\Ohota.na.korolya.2023.AMZN.WEB-DLRip.AVC.mkv
Format : Matroska
Format version : Version 4
File size : 1.29 GiB
Duration : 1 h 30 min
Overall bit rate : 2 023 kb/s
Frame rate : 23.976 FPS
Movie name : King of Killers (2018) WEB-DLRip AVC _ vitolinform
Encoded date : 2023-09-07 01:26:37 UTC
Writing application : mkvmerge v76.0 ('Celebration') 64-bit
Writing library : libebml v1.4.4 + libmatroska v1.7.1
Attachments : poster.jpg / log.log
Video
ID : 1
Format : AVC
Format/Info : Advanced Video Codec
Format profile : High@L4.1
Format settings : CABAC / 16 Ref Frames
Format settings, CABAC : Yes
Format settings, Reference frames : 16 frames
Codec ID : V_MPEG4/ISO/AVC
Duration : 1 h 30 min
Bit rate : 1 381 kb/s
Width : 1 024 pixels
Height : 426 pixels
Display aspect ratio : 2.40:1
Frame rate mode : Constant
Frame rate : 23.976 (24000/1001) FPS
Color space : YUV
Chroma subsampling : 4:2:0
Bit depth : 8 bits
Scan type : Progressive
Bits/(Pixel*Frame) : 0.132
Stream size : 898 MiB (68%)
Title : Охота на короля / King of Killers (2023)
Writing library : x264 core 164 r3107 a8b68eb
Encoding settings : cabac=1 / ref=16 / deblock=1:-3:-3 / analyse=0x3:0x113 / me=umh / subme=9 / psy=1 / psy_rd=1.00:0.05 / mixed_ref=1 / me_range=32 / chroma_me=1 / trellis=2 / 8x8dct=1 / cqm=0 / deadzone=21,11 / fast_pskip=0 / chroma_qp_offset=-3 / threads=12 / lookahead_threads=3 / sliced_threads=0 / nr=0 / decimate=0 / interlaced=0 / bluray_compat=0 / constrained_intra=0 / bframes=10 / b_pyramid=2 / b_adapt=2 / b_bias=0 / direct=3 / weightb=1 / open_gop=0 / weightp=2 / keyint=240 / keyint_min=23 / scenecut=40 / intra_refresh=0 / rc=cqp / mbtree=0 / qp=18 / ip_ratio=1.40 / pb_ratio=1.35 / aq=0
Language : English
Default : Yes
Forced : No
Color range : Limited
Color primaries : BT.709
Transfer characteristics : BT.709
Matrix coefficients : BT.709
Audio #1
ID : 2
Format : AC-3
Format/Info : Audio Coding 3
Commercial name : Dolby Digital
Codec ID : A_AC3
Duration : 1 h 30 min
Bit rate mode : Constant
Bit rate : 192 kb/s
Channel(s) : 2 channels
Channel layout : L R
Sampling rate : 48.0 kHz
Frame rate : 31.250 FPS (1536 SPF)
Compression mode : Lossy
Stream size : 125 MiB (9%)
Title : Dub | Велес
Language : Russian
Service kind : Complete Main
Default : Yes
Forced : No
Audio #2
ID : 3
Format : AC-3
Format/Info : Audio Coding 3
Commercial name : Dolby Digital
Codec ID : A_AC3
Duration : 1 h 30 min
Bit rate mode : Constant
Bit rate : 448 kb/s
Channel(s) : 6 channels
Channel layout : L R C LFE Ls Rs
Sampling rate : 48.0 kHz
Frame rate : 31.250 FPS (1536 SPF)
Compression mode : Lossy
Stream size : 291 MiB (22%)
Title : English
Language : English
Service kind : Complete Main
Default : No
Forced : No
Text #1
ID : 4
Format : UTF-8
Codec ID : S_TEXT/UTF8
Codec ID/Info : UTF-8 Plain Text
Duration : 1 h 25 min
Bit rate : 40 b/s
Frame rate : 0.173 FPS
Count of elements : 889
Stream size : 25.3 KiB (0%)
Title : Full
Language : English
Default : No
Forced : No
Text #2
ID : 5
Format : UTF-8
Codec ID : S_TEXT/UTF8
Codec ID/Info : UTF-8 Plain Text
Duration : 1 h 29 min
Bit rate : 45 b/s
Frame rate : 0.205 FPS
Count of elements : 1101
Stream size : 29.9 KiB (0%)
Title : SDH
Language : English
Default : No
Forced : No
Text #3
ID : 6
Format : UTF-8
Codec ID : S_TEXT/UTF8
Codec ID/Info : UTF-8 Plain Text
Duration : 1 h 25 min
Bit rate : 41 b/s
Frame rate : 0.164 FPS
Count of elements : 844
Stream size : 25.8 KiB (0%)
Title : Full
Language : French
Default : No
Forced : No
Скриншоты:
Все одноименные релизы в КлубеВремя раздачи: как минимум до появления первых 3-5 скачавших, 24/7 (мультитрекерная раздача)
[Профиль] [ЛС]
Показать сообщения:    
Ответить на тему

Текущее время: 22-Фев 00:12

Часовой пояс: UTC ± 0



Вы не можете начинать темы
Вы не можете отвечать на сообщения
Вы не можете редактировать свои сообщения
Вы не можете удалять свои сообщения
Вы не можете голосовать в опросах
Вы не можете прикреплять файлы к сообщениям
Вы не можете скачивать файлы

[  Время выполнения: 0,039 сек  |  MySQL: 0,003 сек (9%) · 3 запр.  |  GZIP выкл  |  Память: 421,85 KB / 1,75 MB / 1,37 MB  |  Лимит: 13 12 10  ]