Последняя королева / La derniere reine / The Last Queen (2022) WEBRip [H.264/1080p]

Ответить на тему
 
Автор Сообщение

admin ®

Пол: Не указан

Стаж: 6 месяца 22 дня

Сообщений: 11520

Создавать темы 30-Янв-2024 17:45

[Цитировать]

Последняя королева / La dernière reine / The Last Queen (2022) WEBRip [H.264/1080p]- Производство: Франция, Алжир, Тайвань, Саудовская Аравия, Катар, 2 Horloges Production, Agat Films & Cie, Birth, CADC
Жанр: драма, приключения, история
Режиссер: Адила Бендимерад, Дамьен Онури
Актеры: Адила Бендимерад, Дали Бенссалах, Мохамед Тахар Зауи, Имен Нуэль, Надя Терешкевич, Янис Ауин, Лила Туши, Мина Лахтер, Тену Хилули, Мерьем Меджкане
Описание:
События фильма разворачиваются в 1516 году. Алжирский эмир Селим-Эвтеми обращается к турецкому пирату Аруджу Барбаросса, чтобы он помог освободить Алжир от испанского гнета. Барбаросса быстро избавился от испанцев, но на этом не остановился и убил самого эмира, опьяненный властью и красотой его жены Зафиры. Прекрасная Зафира отвергла жестокого пирата и бросила вызов его тирании, но Барбаросса не привык к отказам и проигрышам. «Последняя королева» — историческая драма, ставшая одной из первых костюмированных фильмов в Алжире.
Возраст: 18+ (зрителям, достигшим 18 лет. запрещено для детей)
Релиз от: seleZen
Продолжительность: 01:48:51
Качество видео: WEBRip
Перевод: Дублированный (Кинопоиск HD)
Язык озвучки: Русский
Субтитры: Русские
Видео: AVC/H.264, 1920x1036, 6000 Kbps
Аудио 1: AC3, 6 ch, 448 Kbps - русский
Аудио 2: E-AC3, 6 ch, 448 Kbps - русский

MediaInfo:

General
Unique ID : 243547859808151943440684114605835997156 (0xB7399C92724608A6B6F70B3BBCC2CFE4)
Complete name : G:VideoGThe.Last.Queen.2022.WEB-DL.1080p.seleZen.mkv
Format : Matroska
Format version : Version 4
File size : 5.23 GiB
Duration : 1 h 48 min
Overall bit rate : 6 880 kb/s
Frame rate : 25.000 FPS
Movie name : La dernière reine 2022 from seleZen
Encoded date : 2023-09-06 23:42:46 UTC
Writing application : mkvmerge v63.0.0 ('Everything') 64-bit
Writing library : libebml v1.4.2 + libmatroska v1.6.4
Video
ID : 1
Format : AVC
Format/Info : Advanced Video Codec
Format profile : Progressive High@L4
Format settings : CABAC / 4 Ref Frames
Format settings, CABAC : Yes
Format settings, Reference : 4 frames
Codec ID : V_MPEG4/ISO/AVC
Duration : 1 h 48 min
Bit rate : 6 000 kb/s
Width : 1 920 pixels
Height : 1 036 pixels
Display aspect ratio : 1.85:1
Frame rate mode : Constant
Frame rate : 25.000 FPS
Color space : YUV
Chroma subsampling : 4:2:0
Bit depth : 8 bits
Scan type : Progressive
Bits/(Pixel*Frame) : 0.121
Stream size : 4.55 GiB (87%)
Writing library : x264 core 157
Encoding settings : cabac=1 / ref=4 / deblock=1:0:0 / analyse=0x3:0x133 / me=umh / subme=10 / psy=1 / psy_rd=1.00:0.00 / mixed_ref=1 / me_range=24 / chroma_me=1 / trellis=2 / 8x8dct=1 / cqm=0 / deadzone=21,11 / fast_pskip=1 / chroma_qp_offset=-2 / threads=32 / lookahead_threads=5 / sliced_threads=0 / nr=0 / decimate=1 / interlaced=0 / bluray_compat=0 / stitchable=1 / constrained_intra=0 / bframes=8 / b_pyramid=2 / b_adapt=2 / b_bias=0 / direct=3 / weightb=1 / open_gop=0 / weightp=2 / keyint=250 / keyint_min=25 / scenecut=40 / intra_refresh=0 / rc_lookahead=60 / rc=2pass / mbtree=1 / bitrate=6000 / ratetol=1.0 / qcomp=0.60 / qpmin=0 / qpmax=69 / qpstep=4 / cplxblur=20.0 / qblur=0.5 / vbv_maxrate=6600 / vbv_bufsize=12000 / nal_hrd=none / filler=0 / ip_ratio=1.40 / aq=1:1.00
Language : English
Default : Yes
Forced : No
Audio #1
ID : 2
Format : AC-3
Format/Info : Audio Coding 3
Commercial name : Dolby Digital
Codec ID : A_AC3
Duration : 1 h 48 min
Bit rate mode : Constant
Bit rate : 448 kb/s
Channel(s) : 6 channels
Channel layout : L R C LFE Ls Rs
Sampling rate : 48.0 kHz
Frame rate : 31.250 FPS (1536 SPF)
Compression mode : Lossy
Stream size : 349 MiB (7%)
Language : Russian
Service kind : Complete Main
Default : Yes
Forced : Yes
Audio #2
ID : 3
Format : E-AC-3
Format/Info : Enhanced AC-3
Commercial name : Dolby Digital Plus
Codec ID : A_EAC3
Duration : 1 h 48 min
Bit rate mode : Constant
Bit rate : 448 kb/s
Channel(s) : 6 channels
Channel layout : L R C LFE Ls Rs
Sampling rate : 48.0 kHz
Frame rate : 31.250 FPS (1536 SPF)
Compression mode : Lossy
Stream size : 349 MiB (7%)
Language : Russian
Service kind : Complete Main
Default : No
Forced : No
Text
ID : 4
Format : UTF-8
Codec ID : S_TEXT/UTF8
Codec ID/Info : UTF-8 Plain Text
Duration : 1 h 42 min
Bit rate : 77 b/s
Frame rate : 0.270 FPS
Count of elements : 1652
Stream size : 58.2 KiB (0%)
Language : Russian
Default : No
Forced : No
Скриншоты:
Все одноименные релизы в КлубеВремя раздачи: 24/7 (мультитрекер)
[Профиль] [ЛС]
Показать сообщения:    
Ответить на тему

Текущее время: 20-Апр 19:32

Часовой пояс: UTC ± 0



Вы не можете начинать темы
Вы не можете отвечать на сообщения
Вы не можете редактировать свои сообщения
Вы не можете удалять свои сообщения
Вы не можете голосовать в опросах
Вы не можете прикреплять файлы к сообщениям
Вы не можете скачивать файлы

[  Время выполнения: 0,035 сек  |  MySQL: 0,003 сек (8%) · 3 запр.  |  GZIP выкл  |  Память: 422,29 KB / 1,74 MB / 1,34 MB  |  Лимит: 7 6 8  ]