Смертельный выстрел / Dead Shot (2023) WEBRip [H.264/1080p] [DVO]

Ответить на тему
 
Автор Сообщение

admin ®

Пол: Не указан

Стаж: 4 месяца 27 дня

Сообщений: 10110

Создавать темы 30-Янв-2024 17:45

[Цитировать]

Смертельный выстрел / Dead Shot (2023) WEBRip [H.264/1080p]- Производство: Великобритания / Highland Midgie, Piecrust Productions, Rocket Science, Stylopik, Upper Street
Жанр: боевик, триллер
Режиссер: Чарли Гард, Томас Гард
Актеры: Колин Морган, Марэйд Тайерс, Brian McCann, Амл Амин, Марк Стронг, Уильям Оксборро, Хайвел Морган, Rory Grant, Люсьэнн МакЭвой, Мартин МакКарди
Описание:
Ирландский военный в отставке становится свидетелем того, как офицер SAS застрелил его беременную жену. Перехитрив SAS, он сбегает, верша свою месть на темных и параноидальных улицах Лондона 1970-х годов.
Релиз от: Soft-Torrent - торрент игры программы фильмы книги скачать
Продолжительность: 01:27:58
Качество видео: WEBRip (1080p)
Перевод: Двуголосый любительский (Pazl Voice)
Язык озвучки: Русский, английский
Субтитры: Английские (full, SDH)
Видео: AVC/H.264, 1920x1080, ~7830 Kbps
Аудио 1: AC3, 6 ch, 384 Кbps | Русский
Аудио 2: AC3, 6 ch, 384 Кbps | Английский

MediaInfo:

Общее
Уникальный идентификатор : 176274376242145493435466845439200291276 (0x849D35C02784C723829E32B4C29769CC)
Полное имя : D:\NNM\Смертельный выстрел\Dead.Shot.2023.WEB-DL.x264.Soft-Torrent - торрент игры программы фильмы книги скачать+++.mkv
Формат : Matroska
Версия формата : Version 4
Размер файла : 5,26 Гбайт
Продолжительность : 1 ч. 27 м.
Общий поток : 8 560 Кбит/сек
Дата кодирования : UTC 2023-09-03 08:11:44
Программа кодирования : mkvmerge v6.9.1 ('Blue Panther') 32bit built on Apr 18 2014 18:15:44
Библиотека кодирования : libebml v1.3.0 + libmatroska v1.4.1
Видео
Идентификатор : 1
Формат : AVC
Формат/Информация : Advanced Video Codec
Профиль формата : High@L4.1
Настройки формата : CABAC / 2 Ref Frames
Параметр CABAC формата : Да
Параметр RefFrames формата : 2 кадра
Идентификатор кодека : V_MPEG4/ISO/AVC
Продолжительность : 1 ч. 27 м.
Вид битрейта : Постоянный
Битрейт : 7 830 Кбит/сек
Ширина : 1 920 пикселей
Высота : 1 080 пикселей
Соотношение сторон : 16:9
Режим частоты кадров : Постоянный
Частота кадров : 25,000 кадров/сек
Цветовое пространство : YUV
Субдискретизация насыщенности : 4:2:0
Битовая глубина : 8 бит
Тип развёртки : Прогрессивная
Бит/(Пиксели*Кадры) : 0.151
Размер потока : 4,68 Гбайт (89%)
Язык : English
Default : Да
Forced : Нет
Аудио #1
Идентификатор : 2
Формат : AC-3
Формат/Информация : Audio Coding 3
Коммерческое название : Dolby Digital
Идентификатор кодека : A_AC3
Продолжительность : 1 ч. 27 м.
Вид битрейта : Постоянный
Битрейт : 384 Кбит/сек
Каналы : 6 каналов
Channel layout : L R C LFE Ls Rs
Частота : 48,0 КГц
Частота кадров : 31,250 кадров/сек (1536 SPF)
Метод сжатия : С потерями
Размер потока : 242 Мбайт (4%)
Заголовок : DVO - Pazl Voice
Язык : Russian
Service kind : Complete Main
Default : Да
Forced : Нет
Аудио #2
Идентификатор : 3
Формат : AC-3
Формат/Информация : Audio Coding 3
Коммерческое название : Dolby Digital
Идентификатор кодека : A_AC3
Продолжительность : 1 ч. 27 м.
Вид битрейта : Постоянный
Битрейт : 384 Кбит/сек
Каналы : 6 каналов
Channel layout : L R C LFE Ls Rs
Частота : 48,0 КГц
Частота кадров : 31,250 кадров/сек (1536 SPF)
Метод сжатия : С потерями
Размер потока : 242 Мбайт (4%)
Заголовок : Оригинал
Язык : English
Service kind : Complete Main
Default : Нет
Forced : Нет
Текст #1
Идентификатор : 4
Формат : UTF-8
Идентификатор кодека : S_TEXT/UTF8
Идентификатор кодека/Информация : UTF-8 Plain Text
Заголовок : Full
Язык : English
Default : Нет
Forced : Нет
Текст #2
Идентификатор : 5
Формат : UTF-8
Идентификатор кодека : S_TEXT/UTF8
Идентификатор кодека/Информация : UTF-8 Plain Text
Заголовок : SDH
Язык : English
Default : Нет
Forced : Нет
Меню
01:22:38.000 : en:Credits
Скриншоты:
Все одноименные релизы в КлубеВремя раздачи: 24/7 (до 10-ти скачавших)
[Профиль] [ЛС]
Показать сообщения:    
Ответить на тему

Текущее время: 25-Фев 18:43

Часовой пояс: UTC ± 0



Вы не можете начинать темы
Вы не можете отвечать на сообщения
Вы не можете редактировать свои сообщения
Вы не можете удалять свои сообщения
Вы не можете голосовать в опросах
Вы не можете прикреплять файлы к сообщениям
Вы не можете скачивать файлы

[  Время выполнения: 0,040 сек  |  MySQL: 0,003 сек (7%) · 3 запр.  |  GZIP выкл  |  Память: 422,29 KB / 1,74 MB / 1,36 MB  |  Лимит: 17 17 16  ]