Операция «Наполеон» / Napoleonsskjolin / Operation Napoleon (2023) BDRemux [H.264/1080p] [DVO]

Ответить на тему
 
Автор Сообщение

admin ®

Пол: Не указан

Стаж: 6 месяца 22 дня

Сообщений: 11520

Создавать темы 30-Янв-2024 17:45

[Цитировать]

Операция «Наполеон» / Napoleonsskjolin / Operation Napoleon (2023) BDRemux [H.264/1080p]- Производство: Исландия, Германия / Saga FilmSplendid FilmMMC Movies
Жанр: триллер
Режиссер: Оскар Тор Аксельссон
Продюсер: Ральф Кристианс
Актеры: Вивиан Олафсдоттир, Джек Фокс, Иэн Глен, Вотан Вильке Мёринг, Оулавюр Дарри Оулафссон, Атли Оскар Фьяларссон, Аделе Они, Тростур Лео Гуннарссон, Нанна Кристин Магнусдоуттир,
Описание: Молодая исландская юристка Кристин оказывается втянутой в водоворот международного заговора после того, как её обвинили в убийстве, которого она не совершала. Единственный шанс выжить — раскрыть секрет старого немецкого самолёта времен Второй мировой войны, недавно обнаруженного в результате таяния одного из крупнейших ледников Исландии.
Релиз от: Soft-Torrent - торрент игры программы фильмы книги скачать
Продолжительность: :
Качество видео: BDRemux 1080p
Перевод: Любительский двухголосый (Pazl Voice)
Язык озвучки: Русский, Английский
Субтитры: Английские (Forced, Full, SDH), Немецкие (Full)
Видео: AVC/H.264, 1920x1080, 23.3 Mbps, 25.000 fps
Аудио 1: AC-3, 6 ch, 384 Kbps | Русский
Аудио 2: DTS-HD MA, 6 ch, 2106 Kbps | Английский

Mediainfo:

General
Unique ID : 258351803521314626347363738110302329002 (0xC25CBF5975FC7C203AE3934901A398AA)
Complete name : /Volumes/Promise Pegasus/Operation.Napoleon.2023.BDRemux.1080p.pk.mkv
Format : Matroska
Format version : Version 4
File size : 20.2 GiB
Duration : 1 h 52 min
Overall bit rate mode : Variable
Overall bit rate : 25.7 Mb/s
Frame rate : 25.000 FPS
Movie name : Operation Napoleon 2023 BDRemux 1080p pk
Encoded date : 2023-09-03 12:43:31 UTC
Writing application : mkvmerge v79.0 ('Funeral Pyres') 64-bit
Writing library : libebml v1.4.4 + libmatroska v1.7.1
Cover : Yes
Attachments : cover.jpg
Video
ID : 1
Format : AVC
Format/Info : Advanced Video Codec
Format profile : High@L4.1
Format settings : CABAC / 3 Ref Frames
Format settings, CABAC : Yes
Format settings, Reference frames : 3 frames
Codec ID : V_MPEG4/ISO/AVC
Duration : 1 h 52 min
Bit rate mode : Variable
Bit rate : 23.3 Mb/s
Maximum bit rate : 32.0 Mb/s
Width : 1 920 pixels
Height : 1 080 pixels
Display aspect ratio : 16:9
Frame rate mode : Constant
Frame rate : 25.000 FPS
Color space : YUV
Chroma subsampling : 4:2:0
Bit depth : 8 bits
Scan type : Progressive
Bits/(Pixel*Frame) : 0.449
Stream size : 18.2 GiB (90%)
Language : German
Default : Yes
Forced : No
Audio #1
ID : 2
Format : AC-3
Format/Info : Audio Coding 3
Commercial name : Dolby Digital
Codec ID : A_AC3
Duration : 1 h 52 min
Bit rate mode : Constant
Bit rate : 384 kb/s
Channel(s) : 6 channels
Channel layout : L R C LFE Ls Rs
Sampling rate : 48.0 kHz
Frame rate : 31.250 FPS (1536 SPF)
Compression mode : Lossy
Stream size : 309 MiB (1%)
Title : Russian DVO PazlVoice
Language : Russian
Service kind : Complete Main
Default : Yes
Forced : No
Audio #2
ID : 3
Format : DTS XLL
Format/Info : Digital Theater Systems
Commercial name : DTS-HD Master Audio
Codec ID : A_DTS
Duration : 1 h 52 min
Bit rate mode : Variable
Bit rate : 2 106 kb/s
Channel(s) : 6 channels
Channel layout : C L R Ls Rs LFE
Sampling rate : 48.0 kHz
Frame rate : 93.750 FPS (512 SPF)
Bit depth : 16 bits
Compression mode : Lossless
Stream size : 1.65 GiB (8%)
Title : English Original
Language : English
Default : No
Forced : No
Text #1
ID : 4
Format : UTF-8
Codec ID : S_TEXT/UTF8
Codec ID/Info : UTF-8 Plain Text
Duration : 1 h 40 min
Bit rate : 11 b/s
Frame rate : 0.045 FPS
Count of elements : 273
Stream size : 8.33 KiB (0%)
Title : English forced
Language : English
Default : No
Forced : No
Text #2
ID : 5
Format : UTF-8
Codec ID : S_TEXT/UTF8
Codec ID/Info : UTF-8 Plain Text
Duration : 1 h 47 min
Bit rate : 41 b/s
Frame rate : 0.183 FPS
Count of elements : 1179
Stream size : 32.9 KiB (0%)
Title : English full
Language : English
Default : No
Forced : No
Text #3
ID : 6
Format : UTF-8
Codec ID : S_TEXT/UTF8
Codec ID/Info : UTF-8 Plain Text
Duration : 1 h 51 min
Bit rate : 50 b/s
Frame rate : 0.226 FPS
Count of elements : 1511
Stream size : 41.7 KiB (0%)
Title : English SDH
Language : English
Default : No
Forced : No
Text #4
ID : 7
Format : UTF-8
Codec ID : S_TEXT/UTF8
Codec ID/Info : UTF-8 Plain Text
Duration : 1 h 47 min
Bit rate : 45 b/s
Frame rate : 0.154 FPS
Count of elements : 989
Stream size : 35.7 KiB (0%)
Title : German full
Language : German
Default : No
Forced : No
Menu
00:00:00.000 : en:Глава 01
00:10:23.160 : en:Глава 02
00:18:51.080 : en:Глава 03
00:27:13.960 : en:Глава 04
00:37:21.440 : en:Глава 05
00:45:52.960 : en:Глава 06
00:55:07.480 : en:Глава 07
01:06:55.840 : en:Глава 08
01:15:36.280 : en:Глава 09
01:27:05.480 : en:Глава 10
01:36:18.920 : en:Глава 11
01:45:33.400 : en:Глава 12
Скриншоты:
Все одноименные релизы в КлубеВремя раздачи: 24/7 (круглосуточно) (до появления первых 3-5 скачавших)
[Профиль] [ЛС]
Показать сообщения:    
Ответить на тему

Текущее время: 20-Апр 20:32

Часовой пояс: UTC ± 0



Вы не можете начинать темы
Вы не можете отвечать на сообщения
Вы не можете редактировать свои сообщения
Вы не можете удалять свои сообщения
Вы не можете голосовать в опросах
Вы не можете прикреплять файлы к сообщениям
Вы не можете скачивать файлы

[  Время выполнения: 0,039 сек  |  MySQL: 0,002 сек (6%) · 3 запр.  |  GZIP выкл  |  Память: 422,29 KB / 1,75 MB / 1,37 MB  |  Лимит: 8 7 6  ]