Ирати / Irati (2022) BDRemux [H.264/1080p] [MVO]

Ответить на тему
 
Автор Сообщение

admin ®

Пол: Не указан

Стаж: 4 месяца 23 дня

Сообщений: 10110

Создавать темы 30-Янв-2024 17:44

[Цитировать]

Ирати / Irati (2022) BDRemux [H.264/1080p]- Производство: Испания, Франция / Bainet ZinemaIkusgarri FilmsKilima Media
Жанр: фэнтези, боевик, драма, приключения, история
Режиссер: Пауль Уркихо
Актеры: Енеко Сагардов, Эдурне Аскарате, Ициар Итунё, Рамон Агирре, Иньиго Аранбарри, Иньиго Арамбуру, Нагоре Арамбуру, Карлос Аргиньяно, Айтор Барандиаран, Пачи Бискерт
Описание:
Действие происходит в 8-м веке на фоне христианизации удалённых районов в Пиренеях. Уже принявший христианство юный сын погибшего баскского вождя Энеко должен исполнить сделанное отцу обещание защитить свой народ и добиться процветания для него.
Релиз от: Soft-Torrent - торрент игры программы фильмы книги скачать
Продолжительность: 01:51:46
Качество видео: BDRemux (1080p)
Перевод: Многоголосый профессиональный (Jaskier)
Язык озвучки: Русский, испанский
Субтитры: Русские, английские, испанские, немецкие
Видео: AVC/H.264, 1920x1080, ~32,9 Mbps
Аудио #1: AC3, 6 ch, 448 Kbps - Русский
Аудио #2: DTS-HD MA, 6 ch, 1994 Kbps - Испанский

MediaInfo:

Общее
Уникальный идентификатор : 154208811914025109585946085445752368157 (0x7403896F5A55EC172522E2FE5FE0AC1D)
Полное имя : D:\NNM\Ирати\Irati.2022.BDRemux.1080p.Soft-Torrent - торрент игры программы фильмы книги скачать.mkv
Формат : Matroska
Версия формата : Version 4
Размер файла : 27,6 Гбайт
Продолжительность : 1 ч. 51 м.
Режим общего битрейта : Переменный
Общий поток : 35,4 Мбит/сек
Дата кодирования : UTC 2023-09-03 17:13:35
Программа кодирования : mkvmerge v65.0.0 ('Too Much') 64-bit
Библиотека кодирования : libebml v1.4.2 + libmatroska v1.6.4
Видео
Идентификатор : 1
Формат : AVC
Формат/Информация : Advanced Video Codec
Профиль формата : High@L4.1
Настройки формата : CABAC / 3 Ref Frames
Параметр CABAC формата : Да
Параметр RefFrames формата : 3 кадра
Идентификатор кодека : V_MPEG4/ISO/AVC
Продолжительность : 1 ч. 51 м.
Вид битрейта : Переменный
Битрейт : 32,9 Мбит/сек
Максимальный битрейт : 35,0 Мбит/сек
Ширина : 1 920 пикселей
Высота : 1 080 пикселей
Соотношение сторон : 16:9
Режим частоты кадров : Постоянный
Частота кадров : 23,976 (24000/1001) кадра/сек
Цветовое пространство : YUV
Субдискретизация насыщенности : 4:2:0
Битовая глубина : 8 бит
Тип развёртки : Прогрессивная
Бит/(Пиксели*Кадры) : 0.662
Размер потока : 25,7 Гбайт (93%)
Язык : English
Default : Да
Forced : Нет
Аудио #1
Идентификатор : 2
Формат : AC-3
Формат/Информация : Audio Coding 3
Коммерческое название : Dolby Digital
Идентификатор кодека : A_AC3
Продолжительность : 1 ч. 51 м.
Вид битрейта : Постоянный
Битрейт : 448 Кбит/сек
Каналы : 6 каналов
Channel layout : L R C LFE Ls Rs
Частота : 48,0 КГц
Частота кадров : 31,250 кадров/сек (1536 SPF)
Метод сжатия : С потерями
Размер потока : 358 Мбайт (1%)
Заголовок : MVO Jaskier
Язык : Russian
Service kind : Complete Main
Default : Да
Forced : Нет
Аудио #2
Идентификатор : 3
Формат : DTS XLL
Формат/Информация : Digital Theater Systems
Коммерческое название : DTS-HD Master Audio
Идентификатор кодека : A_DTS
Продолжительность : 1 ч. 51 м.
Вид битрейта : Переменный
Битрейт : 1 994 Кбит/сек
Каналы : 6 каналов
Channel layout : C L R Ls Rs LFE
Частота : 48,0 КГц
Частота кадров : 93,750 кадра/сек (512 SPF)
Битовая глубина : 16 бит
Метод сжатия : Без потерь
Размер потока : 1,56 Гбайт (6%)
Язык : Basque
Default : Нет
Forced : Нет
Текст #1
Идентификатор : 4
Формат : UTF-8
Идентификатор кодека : S_TEXT/UTF8
Идентификатор кодека/Информация : UTF-8 Plain Text
Продолжительность : 1 ч. 49 м.
Битрейт : 40 бит/сек
Count of elements : 649
Размер потока : 32,9 Кбайт (0%)
Язык : Russian
Default : Нет
Forced : Нет
Текст #2
Идентификатор : 5
Формат : UTF-8
Идентификатор кодека : S_TEXT/UTF8
Идентификатор кодека/Информация : UTF-8 Plain Text
Продолжительность : 1 ч. 49 м.
Битрейт : 23 бит/сек
Count of elements : 818
Размер потока : 18,6 Кбайт (0%)
Язык : English
Default : Нет
Forced : Нет
Текст #3
Идентификатор : 6
Формат : UTF-8
Идентификатор кодека : S_TEXT/UTF8
Идентификатор кодека/Информация : UTF-8 Plain Text
Продолжительность : 1 ч. 49 м.
Битрейт : 23 бит/сек
Count of elements : 818
Размер потока : 18,8 Кбайт (0%)
Язык : Spanish
Default : Нет
Forced : Нет
Текст #4
Идентификатор : 7
Формат : UTF-8
Идентификатор кодека : S_TEXT/UTF8
Идентификатор кодека/Информация : UTF-8 Plain Text
Продолжительность : 1 ч. 49 м.
Битрейт : 26 бит/сек
Count of elements : 647
Размер потока : 21,4 Кбайт (0%)
Язык : German
Default : Нет
Forced : Нет
Меню
00:00:00.000 : en:Chapter 1
00:09:13.302 : en:Chapter 2
00:17:47.232 : en:Chapter 3
00:29:55.376 : en:Chapter 4
00:39:40.503 : en:Chapter 5
00:48:18.103 : en:Chapter 6
00:58:15.700 : en:Chapter 7
01:07:38.345 : en:Chapter 8
01:17:51.458 : en:Chapter 9
01:26:39.861 : en:Chapter 10
01:36:13.017 : en:Chapter 11
01:44:30.639 : en:Chapter 12
Скриншоты: Все одноименные релизы в КлубеВремя раздачи: 24/7 (до 10-ти скачавших)
[Профиль] [ЛС]
Показать сообщения:    
Ответить на тему

Текущее время: 22-Фев 00:00

Часовой пояс: UTC ± 0



Вы не можете начинать темы
Вы не можете отвечать на сообщения
Вы не можете редактировать свои сообщения
Вы не можете удалять свои сообщения
Вы не можете голосовать в опросах
Вы не можете прикреплять файлы к сообщениям
Вы не можете скачивать файлы

[  Время выполнения: 0,038 сек  |  MySQL: 0,003 сек (8%) · 5 запр.  |  GZIP выкл  |  Память: 421,85 KB / 1,74 MB / 1,37 MB  |  Лимит: 7 8 9  ]