Пила 10 / Saw X (2023) скачать торрент

Ответить на тему
 
Автор Сообщение

admin ®

Пол: Не указан

Стаж: 2 месяца 5 дня

Сообщений: 172

Создавать темы 03-Окт-2023 19:07

[Цитировать]

Пила 10 / Saw X (2023) скачать торрент- Производство: США, Мексика, Канада / Lionsgate Productions, Aldea M Estudios
Жанр: ужасы, триллер
Режиссер: Кевин Гротерт
Актеры: Тобин Белл, Шоуни Смит, Сюннёве Макоди Лунд, Стивен Брэнд, Рената Вака, Joshua Okamoto, Октавио Инохоса, Паулетта Эрнандес, Jorge Briseno, Костас Мэндилор
Описание:
Джон Крамер отправляется в Мексику на экспериментальную операцию, надеясь излечиться рака, но в результате выясняет, что это всего лишь мошенничество и обман отчаявшихся больных. Тогда мужчина решает покарать мошенников в своём фирменном стиле — при помощи хитроумных жестоких ловушек.
Рейтинг MPAA: R (лицам до 17 лет обязательно присутствие взрослого)
Продолжительность: 01:52:56
Качество видео: CamRip
Перевод: любительский двухголосый (DeadSno & den904)
Язык озвучки: русский
Субтитры: отсутствуют
Реклама: всплывающая заставка, баннер
Видео: AVC/H.264, 1920x1080, ~4703 kbps
Аудио: AAC, 2 ch, 256 kbps, русский

MediaInfo:

Общее
Уникальный идентификатор : 3215468584051346730037797439934112504 (0x26B46D753A89C0AF5C4C367CF1922F8)
Полное имя : Пила 10.mkv
Формат : Matroska
Версия формата : Version 4
Размер файла : 3,92 Гбайт
Продолжительность : 1 ч. 52 м.
Общий поток : 4 968 Кбит/сек
Частота кадров : 23,976 кадра/сек
Название фильма : Пила 10
Дата кодирования : 2023-10-02 23:48:08 UTC
Программа кодирования : mkvmerge v74.0.0 ('You Oughta Know') 64-bit
Библиотека кодирования : libebml v1.4.4 + libmatroska v1.7.1
Видео
Идентификатор : 1
Формат : AVC
Формат/Информация : Advanced Video Codec
Профиль формата : High@L4
Настройки формата : CABAC / 4 Ref Frames
Параметр CABAC формата : Да
Параметр RefFrames формата : 4 кадра
Параметр GOP формата : M=1, N=72
Идентификатор кодека : V_MPEG4/ISO/AVC
Продолжительность : 1 ч. 52 м.
Битрейт : 4 703 Кбит/сек
Ширина : 1 920 пикселей
Высота : 1 080 пикселей
Соотношение сторон : 16:9
Режим частоты кадров : Постоянный
Частота кадров : 23,976 (24000/1001) кадра/сек
Цветовое пространство : YUV
Субдискретизация насыщенности : 4:2:0
Битовая глубина : 8 бит
Тип развёртки : Прогрессивная
Бит/(Пиксели*Кадры) : 0.095
Размер потока : 3,71 Гбайт (95%)
Default : Да
Forced : Нет
Аудио
Идентификатор : 2
Формат : AAC LC
Формат/Информация : Advanced Audio Codec Low Complexity
Идентификатор кодека : A_AAC-2
Продолжительность : 1 ч. 52 м.
Битрейт : 265 Кбит/сек
Каналы : 2 канала
Channel layout : L R
Частота : 48,0 КГц
Частота кадров : 46,875 кадров/сек (1024 SPF)
Метод сжатия : С потерями
Размер потока : 212 Мбайт (5%)
Default : Да
Forced : Нет
Скриншоты:
Все одноименные релизы в КлубеВремя раздачи: 24/7 (минимум до появления первых 3-5 скачавших)
[Профиль] [ЛС]
Показать сообщения:    
Ответить на тему

Текущее время: 03-Дек 11:13

Часовой пояс: UTC ± 0



Вы не можете начинать темы
Вы не можете отвечать на сообщения
Вы не можете редактировать свои сообщения
Вы не можете удалять свои сообщения
Вы не можете голосовать в опросах
Вы не можете прикреплять файлы к сообщениям
Вы не можете скачивать файлы

[  Время выполнения: 0,045 сек  |  MySQL: 0,003 сек (6%) · 3 запр.  |  GZIP выкл  |  Память: 422,29 KB / 1,74 MB / 1,34 MB  |  Лимит: 6 6 7  ]