Ирати / Irati (2022) BDRip [H.264] [MVO]

Ответить на тему
 
Автор Сообщение

admin ®

Пол: Не указан

Стаж: 6 месяца 22 дня

Сообщений: 11520

Создавать темы 30-Янв-2024 17:44

[Цитировать]

Ирати / Irati (2022) BDRip [H.264]- Производство: Испания, Франция / Bainet ZinemaIkusgarri FilmsKilima Media
Жанр: фэнтези, боевик, драма, приключения, история
Режиссер: Пауль Уркихо
Актеры: Енеко Сагардов, Эдурне Аскарате, Ициар Итунё, Рамон Агирре, Иньиго Аранбарри, Иньиго Арамбуру, Нагоре Арамбуру, Карлос Аргиньяно, Айтор Барандиаран, Пачи Бискерт
Описание:
Действие происходит в 8-м веке на фоне христианизации удалённых районов в Пиренеях. Уже принявший христианство юный сын погибшего баскского вождя Энеко должен исполнить сделанное отцу обещание защитить свой народ и добиться процветания для него.
Релиз от: Soft-Torrent - торрент игры программы фильмы книги скачать
Продолжительность: 01:51:46
Качество видео: BDRip (AVC)
Перевод: Многоголосый профессиональный (Jaskier)
Язык озвучки: Русский, испанский
Субтитры: Русские, английские
Видео: AVC/H.264, 1024x424, ~2147 Kbps
Аудио #1: AC3, 6 ch, 448 Kbps - Русский
Аудио #2: AC3, 2 ch, 192 Kbps - Испанский

MediaInfo:

Общее
Уникальный идентификатор : 185372131297602338585071971983251263080 (0x8B755FB4C552F9AEA16F4B59243CCE68)
Полное имя : D:\NNM\Ирати\Irati.2022.BDRip.x264.Soft-Torrent - торрент игры программы фильмы книги скачать.mkv
Формат : Matroska
Версия формата : Version 4
Размер файла : 2,18 Гбайт
Продолжительность : 1 ч. 51 м.
Общий поток : 2 789 Кбит/сек
Дата кодирования : UTC 2023-09-03 19:24:55
Программа кодирования : mkvmerge v6.9.1 ('Blue Panther') 32bit built on Apr 18 2014 18:15:44
Библиотека кодирования : libebml v1.3.0 + libmatroska v1.4.1
Видео
Идентификатор : 1
Формат : AVC
Формат/Информация : Advanced Video Codec
Профиль формата : High@L4.1
Настройки формата : CABAC / 12 Ref Frames
Параметр CABAC формата : Да
Параметр RefFrames формата : 12 кадров
Идентификатор кодека : V_MPEG4/ISO/AVC
Продолжительность : 1 ч. 51 м.
Битрейт : 2 147 Кбит/сек
Ширина : 1 024 пикселя
Высота : 424 пикселя
Соотношение сторон : 2,40:1
Режим частоты кадров : Постоянный
Частота кадров : 23,976 кадра/сек
Цветовое пространство : YUV
Субдискретизация насыщенности : 4:2:0
Битовая глубина : 8 бит
Тип развёртки : Прогрессивная
Бит/(Пиксели*Кадры) : 0.206
Размер потока : 1,63 Гбайт (75%)
Библиотека кодирования : x264 core 146 r2538 121396c
Настройки программы : cabac=1 / ref=12 / deblock=1:-3:-3 / analyse=0x3:0x113 / me=umh / subme=11 / psy=1 / psy_rd=1.00:0.15 / mixed_ref=1 / me_range=32 / chroma_me=1 / trellis=2 / 8x8dct=1 / cqm=0 / deadzone=21,11 / fast_pskip=0 / chroma_qp_offset=-3 / threads=12 / lookahead_threads=2 / sliced_threads=0 / nr=0 / decimate=0 / interlaced=0 / bluray_compat=0 / constrained_intra=0 / bframes=8 / b_pyramid=2 / b_adapt=2 / b_bias=0 / direct=1 / weightb=1 / open_gop=0 / weightp=2 / keyint=240 / keyint_min=23 / scenecut=40 / intra_refresh=0 / rc_lookahead=40 / rc=2pass / mbtree=0 / bitrate=2147 / ratetol=1.0 / qcomp=0.60 / qpmin=0 / qpmax=69 / qpstep=4 / cplxblur=20.0 / qblur=0.5 / vbv_maxrate=50000 / vbv_bufsize=62500 / nal_hrd=none / filler=0 / ip_ratio=1.40 / pb_ratio=1.30 / aq=1:0.90
Default : Да
Forced : Нет
Аудио #1
Идентификатор : 2
Формат : AC-3
Формат/Информация : Audio Coding 3
Коммерческое название : Dolby Digital
Идентификатор кодека : A_AC3
Продолжительность : 1 ч. 51 м.
Вид битрейта : Постоянный
Битрейт : 448 Кбит/сек
Каналы : 6 каналов
Channel layout : L R C LFE Ls Rs
Частота : 48,0 КГц
Частота кадров : 31,250 кадров/сек (1536 SPF)
Метод сжатия : С потерями
Размер потока : 358 Мбайт (16%)
Заголовок : MVO - Jaskier
Язык : Russian
Service kind : Complete Main
Default : Да
Forced : Нет
Аудио #2
Идентификатор : 3
Формат : AC-3
Формат/Информация : Audio Coding 3
Коммерческое название : Dolby Digital
Идентификатор кодека : A_AC3
Продолжительность : 1 ч. 51 м.
Вид битрейта : Постоянный
Битрейт : 192 Кбит/сек
Каналы : 2 канала
Channel layout : L R
Частота : 48,0 КГц
Частота кадров : 31,250 кадров/сек (1536 SPF)
Метод сжатия : С потерями
Размер потока : 154 Мбайт (7%)
Заголовок : Оригинал
Язык : Spanish
Service kind : Complete Main
Default : Нет
Forced : Нет
Текст #1
Идентификатор : 4
Формат : UTF-8
Идентификатор кодека : S_TEXT/UTF8
Идентификатор кодека/Информация : UTF-8 Plain Text
Язык : Russian
Default : Нет
Forced : Нет
Текст #2
Идентификатор : 5
Формат : UTF-8
Идентификатор кодека : S_TEXT/UTF8
Идентификатор кодека/Информация : UTF-8 Plain Text
Язык : English
Default : Нет
Forced : Нет
Меню
00:00:00.000 : en:Chapter 1
00:09:13.302 : en:Chapter 2
00:17:47.232 : en:Chapter 3
00:29:55.376 : en:Chapter 4
00:39:40.503 : en:Chapter 5
00:48:18.103 : en:Chapter 6
00:58:15.700 : en:Chapter 7
01:07:38.345 : en:Chapter 8
01:17:51.458 : en:Chapter 9
01:26:39.861 : en:Chapter 10
01:36:13.017 : en:Chapter 11
01:44:30.639 : en:Chapter 12
Скриншоты: Все одноименные релизы в КлубеВремя раздачи: 24/7 (до 10-ти скачавших)
[Профиль] [ЛС]
Показать сообщения:    
Ответить на тему

Текущее время: 20-Апр 18:50

Часовой пояс: UTC ± 0



Вы не можете начинать темы
Вы не можете отвечать на сообщения
Вы не можете редактировать свои сообщения
Вы не можете удалять свои сообщения
Вы не можете голосовать в опросах
Вы не можете прикреплять файлы к сообщениям
Вы не можете скачивать файлы

[  Время выполнения: 0,036 сек  |  MySQL: 0,003 сек (9%) · 5 запр.  |  GZIP выкл  |  Память: 422,29 KB / 1,74 MB / 1,37 MB  |  Лимит: 13 13 12  ]