Охота на короля / King of Killers (2023) WEBRip [H.264/1080p] [MVO] [Line, AD]

Ответить на тему
 
Автор Сообщение

admin ®

Пол: Не указан

Стаж: 5 месяца 1 день

Сообщений: 10110

Создавать темы 30-Янв-2024 17:44

[Цитировать]

Охота на короля / King of Killers (2023) WEBRip [H.264/1080p]- Производство: США, Канада / Alain Moussi Productions, BondIt, Buffalo 8 Productions, Channel 56 Films, Convoke Media, Creative Tank Ink, Dovetale Media, Grindstone Entertainment Group, Julijette
Жанр: боевик, триллер
Режиссер: Кевин Гревье
Актеры: Фрэнк Грилло, Стивен Дорфф, Мари Авгеропулос, Эми Гроунинг, Кевин Гревье, Шэннон Кук-Чун, Ален Мусси, Жорж Сен-Пьер, Джанни Капальди, Райан Тарран
Описание:
Для каждого наемного убийцы важнее жизни только собственная репутация. Чтобы возвыситься в мире киллеров, группа самых отчаянных и безжалостных из них решила устроить охоту на Дракоса по кличке «Король». Отправившись за его головой, они не догадывались, что сами станут добычей и пополнят список побед опаснейшего из Убийц.
Возраст: 18+ (зрителям, достигшим 18 лет. запрещено для детей)
Рейтинг MPAA: R (лицам до 17 лет обязательно присутствие взрослого)
Продолжительность: 01:28:39
Качество видео: WEBRip (1080p)
Перевод: Дублированный (Line) Велес
Язык озвучки: Русский
Субтитры: Отсутствуют
Реклама: Присутствует баннер.
Видео: AVC/H.264, 1920x800, ~7786 Kbps
Аудио: AC3, 2 ch, 192 Kbps

MediaInfo:

Общее
Полное имя : D:\NNM\Охота на короля\King.of.Killers.2023.WEB-DLRip.1080p.mkv
Формат : Matroska
Версия формата : Version 2
Размер файла : 5,04 Гбайт
Продолжительность : 1 ч. 28 м.
Режим общего битрейта : Постоянный
Общий поток : 8 140 Кбит/сек
Программа кодирования : libmatroska 1.4.1
Библиотека кодирования : SolveigMM Matroska Muxer Version 1.0.1904.23
Видео
Идентификатор : 1
Формат : AVC
Формат/Информация : Advanced Video Codec
Профиль формата : High@L4.1
Настройки формата : CABAC / 4 Ref Frames
Параметр CABAC формата : Да
Параметр RefFrames формата : 4 кадра
Идентификатор кодека : V_MPEG4/ISO/AVC
Продолжительность : 1 ч. 28 м.
Вид битрейта : Постоянный
Битрейт : 7 786 Кбит/сек
Номинальный битрейт : 9 000 Кбит/сек
Ширина : 1 920 пикселей
Высота : 800 пикселей
Соотношение сторон : 2,40:1
Режим частоты кадров : Постоянный
Частота кадров : 23,976 (24000/1001) кадра/сек
Стандарт вещания : Component
Цветовое пространство : YUV
Субдискретизация насыщенности : 4:2:0
Битовая глубина : 8 бит
Тип развёртки : Прогрессивная
Бит/(Пиксели*Кадры) : 0.211
Размер потока : 4,82 Гбайт (96%)
Библиотека кодирования : x264 core 155
Default : Нет
Forced : Нет
Цветовой диапазон : Limited
Основные цвета : BT.709
Характеристики трансфера : BT.709
Коэффициенты матрицы : BT.709
Аудио
Идентификатор : 2
Формат : AC-3
Формат/Информация : Audio Coding 3
Коммерческое название : Dolby Digital
Идентификатор кодека : A_AC3
Продолжительность : 1 ч. 28 м.
Вид битрейта : Постоянный
Битрейт : 192 Кбит/сек
Каналы : 2 канала
Channel layout : L R
Частота : 48,0 КГц
Частота кадров : 31,250 кадров/сек (1536 SPF)
Метод сжатия : С потерями
Размер потока : 122 Мбайт (2%)
Язык : Russian
Service kind : Complete Main
Default : Нет
Forced : Нет
Скриншоты: Все одноименные релизы в КлубеВремя раздачи: 24/7 (до 10-ти скачавших)
[Профиль] [ЛС]
Показать сообщения:    
Ответить на тему

Текущее время: 29-Фев 12:36

Часовой пояс: UTC ± 0



Вы не можете начинать темы
Вы не можете отвечать на сообщения
Вы не можете редактировать свои сообщения
Вы не можете удалять свои сообщения
Вы не можете голосовать в опросах
Вы не можете прикреплять файлы к сообщениям
Вы не можете скачивать файлы

[  Время выполнения: 0,035 сек  |  MySQL: 0,003 сек (9%) · 3 запр.  |  GZIP выкл  |  Память: 422,29 KB / 1,74 MB / 1,34 MB  |  Лимит: 17 16 15  ]