Охота на короля / King of Killers (2023) WEBRip [MVO] [AD]

Ответить на тему
 
Автор Сообщение

admin ®

Пол: Не указан

Стаж: 5 месяца 1 день

Сообщений: 10110

Создавать темы 30-Янв-2024 17:44

[Цитировать]

Охота на короля / King of Killers (2023) WEBRip-[img=right]https://nnmstatic.win/forum/image.php?link=https://...7uYp_o.jpg[/img]
Производство: США, Канада / Alain Moussi Productions, BondIt, Buffalo 8 Productions, Channel 56 Films, Convoke Media, Creative Tank Ink, Dovetale Media, Grindstone Entertainment Group, Julijette
Жанр: боевик, триллер
Режиссер: Кевин Гревье
Актеры: Фрэнк Грилло, Стивен Дорфф, Мари Авгеропулос, Эми Гроунинг, Кевин Гревье, Шэннон Кук-Чун, Ален Мусси, Жорж Сен-Пьер, Джанни Капальди, Райан Тарран
Описание:
Для каждого наемного убийцы важнее жизни только собственная репутация. Чтобы возвыситься в мире киллеров, группа самых отчаянных и безжалостных из них решила устроить охоту на Дракоса по кличке «Король». Отправившись за его головой, они не догадывались, что сами станут добычей и пополнят список побед опаснейшего из Убийц.
[/url]
Возраст: 18+ (зрителям, достигшим 18 лет. запрещено для детей)
Рейтинг MPAA: R (лицам до 17 лет обязательно присутствие взрослого)
Продолжительность: 01:28:39
Качество видео: WEBRip [url=http://sendfile.su/1673506]

Перевод: Дублированный (Line) Велес
Язык озвучки: Русский
Субтитры: Отсутствуют
Реклама: Присутствует баннер.
Видео: XviD, 720x304, ~2059 Kbps
Аудио: AC-3, 2 ch, 256 Kbps

MediaInfo:

Общее
Полное имя : D:\NNM\Охота на короля\King.of.Killers.2023.WEB-DLRip.avi
Формат : AVI
Формат/Информация : Audio Video Interleave
Размер файла : 1,44 Гбайт
Продолжительность : 1 ч. 28 м.
Общий поток : 2 324 Кбит/сек
Программа кодирования : VirtualDubMod 1.5.10.3 | www.virtualdub-fr.org || (build 2550/release)
Библиотека кодирования : VirtualDubMod build 2550/release
Видео
Идентификатор : 0
Формат : MPEG-4 Visual
Профиль формата : Advanced Simple@L5
Настройки формата : BVOP1 / Custom Matrix
Параметр BVOP формата : 1
Параметр QPel формата : Нет
Параметр GMC формата : Без точки перехода
Параметр матрицы формата : Выборочная
Идентификатор кодека : XVID
Идентификатор кодека/Подсказка : XviD
Продолжительность : 1 ч. 28 м.
Битрейт : 2 059 Кбит/сек
Ширина : 720 пикселей
Высота : 304 пикселя
Соотношение сторон : 2,35:1
Частота кадров : 23,976 (24000/1001) кадра/сек
Цветовое пространство : YUV
Субдискретизация насыщенности : 4:2:0
Битовая глубина : 8 бит
Тип развёртки : Прогрессивная
Метод сжатия : С потерями
Бит/(Пиксели*Кадры) : 0.392
Размер потока : 1,28 Гбайт (89%)
Библиотека кодирования : XviD 73
Аудио
Идентификатор : 1
Формат : AC-3
Формат/Информация : Audio Coding 3
Коммерческое название : Dolby Digital
Идентификатор кодека : 2000
Продолжительность : 1 ч. 28 м.
Вид битрейта : Постоянный
Битрейт : 256 Кбит/сек
Каналы : 2 канала
Channel layout : L R
Частота : 48,0 КГц
Частота кадров : 31,250 кадров/сек (1536 SPF)
Метод сжатия : С потерями
Размер потока : 162 Мбайт (11%)
Выравнивание : Разделение по промежуткам
Продолжительность промежутка : 42 мс. (1,00 видеокадр)
Время предзагрузки промежутка : 500 мс.
Service kind : Complete Main
Скриншоты:[img]https://nnmstatic.win/forum/image.php?link=https://i.imgur.com/AHZViLj.png[/img] [img]https://nnmstatic.win/forum/image.php?link=https://i.imgur.com/kfRwTGL.png[/img] [img]https://nnmstatic.win/forum/image.php?link=https://i.imgur.com/SWCZFhd.png[/img] [img]https://nnmstatic.win/forum/image.php?link=https://i.imgur.com/Caaa4S0.png[/img] [img]https://nnmstatic.win/forum/image.php?link=https://i.imgur.com/4bDdgaX.png[/img]Время раздачи: 24/7 (до 10-ти скачавших)
[Профиль] [ЛС]
Показать сообщения:    
Ответить на тему

Текущее время: 29-Фев 11:14

Часовой пояс: UTC ± 0



Вы не можете начинать темы
Вы не можете отвечать на сообщения
Вы не можете редактировать свои сообщения
Вы не можете удалять свои сообщения
Вы не можете голосовать в опросах
Вы не можете прикреплять файлы к сообщениям
Вы не можете скачивать файлы

[  Время выполнения: 0,039 сек  |  MySQL: 0,004 сек (11%) · 3 запр.  |  GZIP выкл  |  Память: 422,29 KB / 1,74 MB / 1,34 MB  |  Лимит: 10 11 11  ]