Земля мафии / Mob Land (2023) скачать торрент

Ответить на тему
 
Автор Сообщение

admin ®

Пол: Не указан

Стаж: 7 месяца 26 дня

Сообщений: 11520

Создавать темы 03-Окт-2023 19:06

[Цитировать]

Земля мафии / Mob Land (2023) скачать торрент- Производство: Канада, 308 Ent, BondIt, Buffalo 8 Productions, Three Point Capital
Жанр: боевик, триллер, криминал
Режиссер: Николас Маджио
Продюсер: Берни Гьюисслер, Дэнни Чан
Актеры: Шайло Фернандес, Кевин Диллон, Джон Траволта, Стивен Дорфф, Эшли Бенсон, Тиа ДиМартино, Тимоти В. Мерфи, Роберт Миано, Дебра Нельсон, Эмили Треймейн
Описание: Провинциальный американский городок. Простые работяги Шелби и Трей решают устроить дерзкое ограбление, чтобы достать деньги для своей семьи. Их преступление идет не по плану, из-за чего они ввязываются в перестрелку, убивают двух человек и едва скрываются с места. Вскоре на их след нападает опытный шериф Боди Дэвис, который хочет во что бы то ни стало покончить с наркобизнесом, медленно пожирающим его родной город. Однако служитель закона оказывается вовсе не самым опасным противником Шелби и Трея. Грабители даже не подозревают, что украденные ими деньги принадлежат могущественному мафиозному боссу, который жаждет отомстить людям, сорвавшим его планы.
Рейтинг MPAA: R Лицам до 17 обязательно присутствие взрослых
Релиз от: Кинозал
Продолжительность: 01:51:32
Качество видео: BDRemux 1080p
Перевод: Профессиональный двухголосый (ViruseProject)
Язык озвучки: Русский, Английский
Субтитры: Русские (Full), Английские (Full, SDH)
Видео: AVC/H.264, 1920x1080, 26.0 Mbps, 23.976 fps
Аудио 1: AC-3, 2.0 ch, 224 Kbps | Русский
Аудио 2: DTS-HD MA, 6 ch, 3525 Kbps | Английский

Mediainfo:

General
Unique ID : 315908994441387343792501003929122346697 (0xEDA9DBF528EDCC3EDD0D1830FB2996C9)
Complete name : /Volumes/Promise Pegasus/Mob.Land.2023.BDRemux.1080p.mkv
Format : Matroska
Format version : Version 4
File size : 23.2 GiB
Duration : 1 h 51 min
Overall bit rate mode : Variable
Overall bit rate : 29.8 Mb/s
Frame rate : 23.976 FPS
Movie name : Mob Land 2023 BDRemux 1080p
Encoded date : 2023-10-02 22:17:57 UTC
Writing application : mkvmerge v79.0 ('Funeral Pyres') 64-bit
Writing library : libebml v1.4.4 + libmatroska v1.7.1
Cover : Yes
Attachments : cover.jpg
Video
ID : 1
Format : AVC
Format/Info : Advanced Video Codec
Format profile : High@L4.1
Format settings : CABAC / 4 Ref Frames
Format settings, CABAC : Yes
Format settings, Reference frames : 4 frames
Codec ID : V_MPEG4/ISO/AVC
Duration : 1 h 51 min
Bit rate mode : Variable
Bit rate : 26.0 Mb/s
Maximum bit rate : 35.0 Mb/s
Width : 1 920 pixels
Height : 1 080 pixels
Display aspect ratio : 16:9
Frame rate mode : Constant
Frame rate : 23.976 (24000/1001) FPS
Standard : NTSC
Color space : YUV
Chroma subsampling : 4:2:0
Bit depth : 8 bits
Scan type : Progressive
Bits/(Pixel*Frame) : 0.523
Stream size : 20.3 GiB (87%)
Language : English
Default : Yes
Forced : No
Color range : Limited
Color primaries : BT.709
Transfer characteristics : BT.709
Matrix coefficients : BT.709
Audio #1
ID : 2
Format : AC-3
Format/Info : Audio Coding 3
Commercial name : Dolby Digital
Codec ID : A_AC3
Duration : 1 h 50 min
Bit rate mode : Constant
Bit rate : 224 kb/s
Channel(s) : 2 channels
Channel layout : L R
Sampling rate : 48.0 kHz
Frame rate : 31.250 FPS (1536 SPF)
Compression mode : Lossy
Stream size : 178 MiB (1%)
Title : Russian DVO ViruseProject
Language : Russian
Service kind : Complete Main
Default : Yes
Forced : No
Audio #2
ID : 3
Format : DTS XLL
Format/Info : Digital Theater Systems
Commercial name : DTS-HD Master Audio
Codec ID : A_DTS
Duration : 1 h 51 min
Bit rate mode : Variable
Bit rate : 3 525 kb/s
Channel(s) : 6 channels
Channel layout : C L R Ls Rs LFE
Sampling rate : 48.0 kHz
Frame rate : 93.750 FPS (512 SPF)
Bit depth : 24 bits
Compression mode : Lossless
Stream size : 2.75 GiB (12%)
Title : English Original
Language : English
Default : No
Forced : No
Text #1
ID : 4
Format : UTF-8
Codec ID : S_TEXT/UTF8
Codec ID/Info : UTF-8 Plain Text
Duration : 1 h 42 min
Bit rate : 63 b/s
Frame rate : 0.178 FPS
Count of elements : 1095
Stream size : 47.4 KiB (0%)
Title : Russian full
Language : Russian
Default : No
Forced : No
Text #2
ID : 5
Format : UTF-8
Codec ID : S_TEXT/UTF8
Codec ID/Info : UTF-8 Plain Text
Duration : 1 h 48 min
Bit rate : 44 b/s
Frame rate : 0.189 FPS
Count of elements : 1237
Stream size : 35.8 KiB (0%)
Title : English full
Language : English
Default : No
Forced : No
Text #3
ID : 6
Format : UTF-8
Codec ID : S_TEXT/UTF8
Codec ID/Info : UTF-8 Plain Text
Duration : 1 h 50 min
Bit rate : 60 b/s
Frame rate : 0.262 FPS
Count of elements : 1740
Stream size : 48.6 KiB (0%)
Title : English SDH
Language : English
Default : No
Forced : No
Menu
00:00:00.000 : en:Chapter 01
00:07:18.438 : en:Chapter 02
00:14:31.871 : en:Chapter 03
00:22:08.327 : en:Chapter 04
00:28:10.689 : en:Chapter 05
00:32:29.948 : en:Chapter 06
00:40:07.614 : en:Chapter 07
00:49:50.988 : en:Chapter 08
00:58:00.102 : en:Chapter 09
01:06:34.991 : en:Chapter 10
01:14:36.889 : en:Chapter 11
01:22:13.345 : en:Chapter 12
01:28:59.334 : en:Chapter 13
01:35:12.123 : en:Chapter 14
01:41:09.063 : en:Chapter 15
01:46:41.395 : en:Chapter 16
Скриншоты:
Все одноименные релизы в КлубеВремя раздачи: 24/7 (круглосуточно) (до появления первых 3-5 скачавших)
[Профиль] [ЛС]
Показать сообщения:    
Ответить на тему

Текущее время: 24-Май 14:06

Часовой пояс: UTC ± 0



Вы не можете начинать темы
Вы не можете отвечать на сообщения
Вы не можете редактировать свои сообщения
Вы не можете удалять свои сообщения
Вы не можете голосовать в опросах
Вы не можете прикреплять файлы к сообщениям
Вы не можете скачивать файлы

[  Время выполнения: 0,029 сек  |  MySQL: 0,003 сек (9%) · 3 запр.  |  GZIP выкл  |  Память: 422,49 KB / 1,73 MB / 1,35 MB  |  Лимит: 12 13 14  ]