Мое итальянское лето / Gli anni belli (2022) WEB-DL [H.264/1080p] [MVO]

Ответить на тему
 
Автор Сообщение

admin ®

Пол: Не указан

Стаж: 4 месяца 23 дня

Сообщений: 10110

Создавать темы 30-Янв-2024 17:43

[Цитировать]

Мое итальянское лето / Gli anni belli (2022) WEB-DL [H.264/1080p]- Производство: Италия, Сербия / Art & Popcorn, Bendico, Hora Magica
Жанр: комедия
Режиссер: Лоренцу д’Амику де Карвалью
Актеры: Романа Маджора Вергано, Лука Аттадья, Антонино Брускетта, Костантино Комито, Мария Грация Кучинотта, Паола Лавини, Риккардо Мария Манера, Бениамино Марконе, Ана Падран, Розалия Поркаро
Описание:
Лето 1994 года Элена проводит со своей семьей на море. Девушке 17 лет, она обожает «Нирвану» и готова покорять этот мир своей молодостью и энергией. Ее жизнь прямо сейчас — это обжигающее солнце, сладкая беззаботность и… красавец Андре, способный составить конкуренцию Курту Кобейну. Молодых людей ждет самое волнующее лето, которое произведет революцию в их жизни, пока в стране бушуют перемены. «Мое итальянское лето» — молодежная романтическая комедия.
Возраст: 16+ (зрителям, достигшим 16 лет)
Продолжительность: 01:37:24
Качество видео: WEB-DL (1080p)
Перевод: Многоголосый профессиональный ( IVI)
Язык озвучки: Русский, итальянский
Субтитры: Русские
Видео: AVC/H.264, 1920x958, ~5103 Kbps
Аудио #1: AC3, 6 ch, 384 Kbps - Русский
Аудио #2: AC3, 6 ch, 384 Kbps - Английский

MediaInfo:

Общее
Уникальный идентификатор : 120422787711913203407721919459398782560 (0x5A9895D52DB393DBFD77173557C40E60)
Полное имя : D:\NNM\Мое итальянское лето\Gli.anni.belli.2022.WEB-DL.1080p.seleZen.mkv
Формат : Matroska
Версия формата : Version 4
Размер файла : 4,00 Гбайт
Продолжительность : 1 ч. 37 м.
Общий поток : 5 873 Кбит/сек
Название фильма : Gli anni belli 2022 from seleZen
Дата кодирования : UTC 2023-09-04 21:30:34
Программа кодирования : mkvmerge v63.0.0 ('Everything') 64-bit
Библиотека кодирования : libebml v1.4.2 + libmatroska v1.6.4
Видео
Идентификатор : 1
Формат : AVC
Формат/Информация : Advanced Video Codec
Профиль формата : High@L4
Настройки формата : CABAC / 4 Ref Frames
Параметр CABAC формата : Да
Параметр RefFrames формата : 4 кадра
Идентификатор кодека : V_MPEG4/ISO/AVC
Продолжительность : 1 ч. 37 м.
Битрейт : 5 103 Кбит/сек
Ширина : 1 920 пикселей
Высота : 958 пикселей
Соотношение сторон : 2,004
Режим частоты кадров : Постоянный
Частота кадров : 25,000 кадров/сек
Цветовое пространство : YUV
Субдискретизация насыщенности : 4:2:0
Битовая глубина : 8 бит
Тип развёртки : Прогрессивная
Бит/(Пиксели*Кадры) : 0.111
Размер потока : 3,47 Гбайт (87%)
Язык : Italian
Default : Да
Forced : Нет
Аудио #1
Идентификатор : 2
Формат : AC-3
Формат/Информация : Audio Coding 3
Коммерческое название : Dolby Digital
Идентификатор кодека : A_AC3
Продолжительность : 1 ч. 37 м.
Вид битрейта : Постоянный
Битрейт : 384 Кбит/сек
Каналы : 6 каналов
Channel layout : L R C LFE Ls Rs
Частота : 48,0 КГц
Частота кадров : 31,250 кадров/сек (1536 SPF)
Метод сжатия : С потерями
Размер потока : 268 Мбайт (7%)
Язык : Russian
Service kind : Complete Main
Default : Да
Forced : Да
Аудио #2
Идентификатор : 3
Формат : AC-3
Формат/Информация : Audio Coding 3
Коммерческое название : Dolby Digital
Идентификатор кодека : A_AC3
Продолжительность : 1 ч. 37 м.
Вид битрейта : Постоянный
Битрейт : 384 Кбит/сек
Каналы : 6 каналов
Channel layout : L R C LFE Ls Rs
Частота : 48,0 КГц
Частота кадров : 31,250 кадров/сек (1536 SPF)
Метод сжатия : С потерями
Размер потока : 268 Мбайт (7%)
Язык : Italian
Service kind : Complete Main
Default : Нет
Forced : Нет
Текст
Идентификатор : 4
Формат : UTF-8
Идентификатор кодека : S_TEXT/UTF8
Идентификатор кодека/Информация : UTF-8 Plain Text
Продолжительность : 1 ч. 33 м.
Битрейт : 133 бит/сек
Count of elements : 1804
Размер потока : 91,1 Кбайт (0%)
Язык : Russian
Default : Нет
Forced : Нет
Скриншоты: Все одноименные релизы в КлубеВремя раздачи: 24/7 (до 10-ти скачавших)
[Профиль] [ЛС]
Показать сообщения:    
Ответить на тему

Текущее время: 22-Фев 00:03

Часовой пояс: UTC ± 0



Вы не можете начинать темы
Вы не можете отвечать на сообщения
Вы не можете редактировать свои сообщения
Вы не можете удалять свои сообщения
Вы не можете голосовать в опросах
Вы не можете прикреплять файлы к сообщениям
Вы не можете скачивать файлы

[  Время выполнения: 0,037 сек  |  MySQL: 0,003 сек (8%) · 3 запр.  |  GZIP выкл  |  Память: 421,85 KB / 1,74 MB / 1,36 MB  |  Лимит: 9 9 9  ]