Мое итальянское лето / Gli anni belli (2022) WEB-DLRip [H.264] [MVO]

Ответить на тему
 
Автор Сообщение

admin ®

Пол: Не указан

Стаж: 4 месяца 23 дня

Сообщений: 10110

Создавать темы 30-Янв-2024 17:43

[Цитировать]

Мое итальянское лето / Gli anni belli (2022) WEB-DLRip [H.264]- Производство: Италия, Сербия / Art & Popcorn, Bendico, Hora Magica
Жанр: комедия
Режиссер: Лоренцу д’Амику де Карвалью
Актеры: Романа Маджора Вергано, Лука Аттадья, Антонино Брускетта, Костантино Комито, Мария Грация Кучинотта, Паола Лавини, Риккардо Мария Манера, Бениамино Марконе, Ана Падран, Розалия Поркаро
Описание:
Лето 1994 года Элена проводит со своей семьей на море. Девушке 17 лет, она обожает «Нирвану» и готова покорять этот мир своей молодостью и энергией. Ее жизнь прямо сейчас — это обжигающее солнце, сладкая беззаботность и… красавец Андре, способный составить конкуренцию Курту Кобейну. Молодых людей ждет самое волнующее лето, которое произведет революцию в их жизни, пока в стране бушуют перемены. «Мое итальянское лето» — молодежная романтическая комедия.
Возраст: 16+ (зрителям, достигшим 16 лет)
Продолжительность: 01:37:24
Качество видео: WEB-DLRip (AVC)
Перевод: Многоголосый профессиональный ( IVI)
Язык озвучки: Русский
Субтитры: Русские
Видео: AVC/H.264, 1024x510, ~1764 Kbps
Аудио : AC3, 6 ch, 384 Kbps

MediaInfo:

Общее
Уникальный идентификатор : 151761737336804528791391110892860045470 (0x722C3F57E511A9363CDFBB48B0B1789E)
Полное имя : D:\NNM\Мое итальянское лето\Gli.anni.belli.2022.WEB-DLRip.x264.seleZen.mkv
Формат : Matroska
Версия формата : Version 4
Размер файла : 1,46 Гбайт
Продолжительность : 1 ч. 37 м.
Общий поток : 2 139 Кбит/сек
Название фильма : Gli.anni.belli.2022.WEB-DLRip.x264.seleZen
Дата кодирования : UTC 2023-09-05 07:23:26
Программа кодирования : mkvmerge v79.0 ('Funeral Pyres') 64-bit
Библиотека кодирования : libebml v1.4.4 + libmatroska v1.7.1
Обложка : Yes
Attachments : cover.jpg / small_cover.jpg
Видео
Идентификатор : 1
Формат : AVC
Формат/Информация : Advanced Video Codec
Профиль формата : High@L4.1
Настройки формата : CABAC / 10 Ref Frames
Параметр CABAC формата : Да
Параметр RefFrames формата : 10 кадров
Идентификатор кодека : V_MPEG4/ISO/AVC
Продолжительность : 1 ч. 37 м.
Битрейт : 1 764 Кбит/сек
Ширина : 1 024 пикселя
Высота : 510 пикселей
Соотношение сторон : 2,008
Режим частоты кадров : Постоянный
Частота кадров : 25,000 кадров/сек
Цветовое пространство : YUV
Субдискретизация насыщенности : 4:2:0
Битовая глубина : 8 бит
Тип развёртки : Прогрессивная
Бит/(Пиксели*Кадры) : 0.135
Размер потока : 1,19 Гбайт (82%)
Заголовок : -=DoMiNo=-
Библиотека кодирования : x264 core 164 r3107+58M ae98796 t_mod_New | by -=DoMiNo=- | X86_64]
Настройки программы : cabac=1 / ref=10 / deblock=1:0:0 / analyse=0x3:0x133 / me=umh / subme=10 / psy=1 / fade_compensate=0.00 / psy_rd=1.00:0.00 / mixed_ref=1 / me_range=40 / chroma_me=1 / trellis=2 / 8x8dct=1 / cqm=0 / deadzone=21,11 / fast_pskip=0 / chroma_qp_offset=-2 / threads=16 / lookahead_threads=3 / sliced_threads=0 / nr=0 / decimate=0 / interlaced=0 / bluray_compat=0 / constrained_intra=0 / fgo=0 / bframes=10 / b_pyramid=2 / b_adapt=2 / b_bias=0 / direct=3 / weightb=1 / open_gop=0 / weightp=2 / keyint=250 / keyint_min=25 / scenecut=40 / intra_refresh=0 / rc_lookahead=60 / rc=2pass / mbtree=0 / bitrate=1764 / ratetol=1.0 / qcomp=0.70 / qpmin=0:0:0 / qpmax=69:69:69 / qpstep=4 / cplxblur=20.0 / qblur=0.5 / vbv_maxrate=50000 / vbv_bufsize=62500 / nal_hrd=none / filler=0 / ip_ratio=1.20 / pb_ratio=1.40 / aq=1:1.00 / aq-sensitivity=10.00 / aq-factor=1.00:1.00:1.00 / aq2=0 / aq3=0
Язык : Italian
Default : Да
Forced : Нет
Аудио
Идентификатор : 2
Формат : AC-3
Формат/Информация : Audio Coding 3
Коммерческое название : Dolby Digital
Идентификатор кодека : A_AC3
Продолжительность : 1 ч. 37 м.
Вид битрейта : Постоянный
Битрейт : 384 Кбит/сек
Каналы : 6 каналов
Channel layout : L R C LFE Ls Rs
Частота : 48,0 КГц
Частота кадров : 31,250 кадров/сек (1536 SPF)
Метод сжатия : С потерями
Размер потока : 268 Мбайт (18%)
Заголовок : MVO
Язык : Russian
Service kind : Complete Main
Default : Да
Forced : Нет
Текст
Идентификатор : 3
Формат : UTF-8
Идентификатор кодека : S_TEXT/UTF8
Идентификатор кодека/Информация : UTF-8 Plain Text
Продолжительность : 1 ч. 33 м.
Битрейт : 133 бит/сек
Count of elements : 1804
Размер потока : 91,1 Кбайт (0%)
Язык : Russian
Default : Нет
Forced : Нет
Меню
00:00:00.000 : en:Глава 01
00:05:50.000 : en:Глава 02
00:11:40.000 : en:Глава 03
00:17:30.000 : en:Глава 04
00:23:20.000 : en:Глава 05
00:29:10.000 : en:Глава 06
00:35:00.000 : en:Глава 07
00:40:50.000 : en:Глава 08
00:46:40.000 : en:Глава 09
00:52:30.000 : en:Глава 10
00:58:20.000 : en:Глава 11
01:04:10.000 : en:Глава 12
01:10:00.000 : en:Глава 13
01:15:50.000 : en:Глава 14
01:21:40.000 : en:Глава 15
01:27:30.000 : en:Глава 16
01:33:20.000 : en:Глава 17
Скриншоты: Все одноименные релизы в КлубеВремя раздачи: 24/7 (до 10-ти скачавших)
[Профиль] [ЛС]
Показать сообщения:    
Ответить на тему

Текущее время: 22-Фев 00:48

Часовой пояс: UTC ± 0



Вы не можете начинать темы
Вы не можете отвечать на сообщения
Вы не можете редактировать свои сообщения
Вы не можете удалять свои сообщения
Вы не можете голосовать в опросах
Вы не можете прикреплять файлы к сообщениям
Вы не можете скачивать файлы

[  Время выполнения: 0,033 сек  |  MySQL: 0,004 сек (11%) · 3 запр.  |  GZIP выкл  |  Память: 421,85 KB / 1,74 MB / 1,36 MB  |  Лимит: 17 17 16  ]