Лучшие дни / Greatest Days (2023) скачать торрент

Ответить на тему
 
Автор Сообщение

admin ®

Пол: Не указан

Стаж: 6 месяца 19 дня

Сообщений: 11520

Создавать темы 03-Окт-2023 19:06

[Цитировать]

Лучшие дни / Greatest Days (2023) скачать торрент- Производство: Великобритания / Ekome, Elysian Film GroupЮ Head Gear Films, Heretic
Жанр: Mюзикл, драма, комедия, музыка
Режиссер: Коки Гидройч
Продюсер: Джейн Хукс
Актеры: Эшлин Би, Амака Окафор, Элис Лоу, Джейд Адамс, Лара МакДоннел, Нанди Хадсон, Элиза Добсон, Каррагон Гест, Мэттью МакНалти, Эмма Амос
Описание: История о четырех подругах, которые встречаются спустя 25 лет, чтобы отправиться в путешествие и вспомнить свою бурную молодость под песни культовой группы Take That.
Возраст: 18+ (зрителям, достигшим 18 лет. запрещено для детей)
Релиз от: ExKinoRay
Продолжительность: 01:43:20
Качество видео: BDRemux 1080p
Перевод: Дублированный (Мосфильм-Мастер)
Язык озвучки: Русский, Английский
Субтитры: Английские (Forced), Немецкие (Full)
Видео: AVC/H.264, 1920x1080, 30.0 Mbps, 24.000 fps
Аудио 1: AC-3, 6 ch, 448 Kbps | Русский
Аудио 2: DTS-HD MA, 8.0 ch, 5065 Kbps | Английский

Mediainfo:

General
Unique ID : 172904352212273088813097797990956265150 (0x82142ABCD8607FD853E59F511F45EEBE)
Complete name : /Volumes/Promise Pegasus/Greatest.Days.2023.BDRemux.1080p.mkv
Format : Matroska
Format version : Version 4
File size : 25.7 GiB
Duration : 1 h 43 min
Overall bit rate mode : Variable
Overall bit rate : 35.6 Mb/s
Frame rate : 24.000 FPS
Movie name : Greatest Days 2023 BDRemux 1080p
Encoded date : 2023-10-03 14:47:19 UTC
Writing application : mkvmerge v79.0 ('Funeral Pyres') 64-bit
Writing library : libebml v1.4.4 + libmatroska v1.7.1
Video
ID : 1
Format : AVC
Format/Info : Advanced Video Codec
Format profile : High@L4.1
Format settings : CABAC / 4 Ref Frames
Format settings, CABAC : Yes
Format settings, Reference frames : 4 frames
Codec ID : V_MPEG4/ISO/AVC
Duration : 1 h 43 min
Bit rate mode : Variable
Bit rate : 30.0 Mb/s
Nominal bit rate : 32.0 Mb/s
Maximum bit rate : 32.0 Mb/s
Width : 1 920 pixels
Height : 1 080 pixels
Display aspect ratio : 16:9
Frame rate mode : Constant
Frame rate : 24.000 FPS
Color space : YUV
Chroma subsampling : 4:2:0
Bit depth : 8 bits
Scan type : Progressive
Bits/(Pixel*Frame) : 0.604
Stream size : 21.7 GiB (84%)
Writing library : x264 core 164 r3107 a8b68eb
Encoding settings : cabac=1 / ref=4 / deblock=1:0:0 / analyse=0x3:0x113 / me=umh / subme=9 / psy=1 / psy_rd=1.00:0.00 / mixed_ref=1 / me_range=16 / chroma_me=1 / trellis=2 / 8x8dct=1 / cqm=1 / deadzone=21,11 / fast_pskip=1 / chroma_qp_offset=-2 / threads=24 / lookahead_threads=2 / sliced_threads=0 / slices=4 / nr=0 / decimate=1 / interlaced=0 / bluray_compat=1 / constrained_intra=0 / bframes=2 / b_pyramid=0 / b_adapt=2 / b_bias=0 / direct=3 / weightb=1 / open_gop=1 / weightp=1 / keyint=24 / keyint_min=1 / scenecut=40 / intra_refresh=0 / rc_lookahead=24 / rc=2pass / mbtree=1 / bitrate=32000 / ratetol=1.0 / qcomp=0.60 / qpmin=3 / qpmax=69 / qpstep=4 / cplxblur=20.0 / qblur=0.5 / vbv_maxrate=32000 / vbv_bufsize=30000 / nal_hrd=vbr / filler=0 / ip_ratio=1.40 / aq=1:1.00
Language : English
Default : Yes
Forced : No
Color range : Limited
Color primaries : BT.709
Transfer characteristics : BT.709
Matrix coefficients : BT.709
Audio #1
ID : 2
Format : AC-3
Format/Info : Audio Coding 3
Commercial name : Dolby Digital
Codec ID : A_AC3
Duration : 1 h 43 min
Bit rate mode : Constant
Bit rate : 448 kb/s
Channel(s) : 6 channels
Channel layout : L R C LFE Ls Rs
Sampling rate : 48.0 kHz
Frame rate : 31.250 FPS (1536 SPF)
Compression mode : Lossy
Stream size : 331 MiB (1%)
Title : Russian Dub Мосфильм-Мастер
Language : Russian
Service kind : Complete Main
Default : Yes
Forced : No
Audio #2
ID : 3
Format : DTS ES XLL
Format/Info : Digital Theater Systems
Commercial name : DTS-HD Master Audio
Codec ID : A_DTS
Duration : 1 h 43 min
Bit rate mode : Variable
Bit rate : 5 065 kb/s
Channel(s) : 8 channels
Channel layout : C L R Ls Rs LFE Lb Rb
Sampling rate : 48.0 kHz
Frame rate : 93.750 FPS (512 SPF)
Bit depth : 24 bits
Compression mode : Lossless
Stream size : 3.66 GiB (14%)
Title : English Original
Language : English
Default : No
Forced : No
Text #1
ID : 4
Format : UTF-8
Codec ID : S_TEXT/UTF8
Codec ID/Info : UTF-8 Plain Text
Duration : 5 s 165 ms
Bit rate : 86 b/s
Frame rate : 0.387 FPS
Count of elements : 2
Stream size : 56.0 Bytes (0%)
Title : Russian Forced
Language : English
Default : No
Forced : No
Text #2
ID : 5
Format : UTF-8
Codec ID : S_TEXT/UTF8
Codec ID/Info : UTF-8 Plain Text
Duration : 1 h 35 min
Bit rate : 68 b/s
Frame rate : 0.234 FPS
Count of elements : 1333
Stream size : 47.8 KiB (0%)
Title : German full
Language : German
Default : No
Forced : No
Menu
00:00:00.000 : en:Chapter 01
00:09:07.083 : en:Chapter 02
00:15:04.625 : en:Chapter 03
00:20:17.833 : en:Chapter 04
00:26:45.750 : en:Chapter 05
00:32:00.083 : en:Chapter 06
00:37:18.000 : en:Chapter 07
00:43:12.417 : en:Chapter 08
00:49:02.750 : en:Chapter 09
00:56:02.625 : en:Chapter 10
01:01:51.458 : en:Chapter 11
01:08:08.083 : en:Chapter 12
01:16:57.208 : en:Chapter 13
01:23:08.375 : en:Chapter 14
01:29:29.958 : en:Chapter 15
01:36:10.292 : en:Chapter 16
Скриншоты:
Все одноименные релизы в КлубеВремя раздачи: 24/7 (круглосуточно) (до появления первых 3-5 скачавших)
[Профиль] [ЛС]
Показать сообщения:    
Ответить на тему

Текущее время: 17-Апр 16:22

Часовой пояс: UTC ± 0



Вы не можете начинать темы
Вы не можете отвечать на сообщения
Вы не можете редактировать свои сообщения
Вы не можете удалять свои сообщения
Вы не можете голосовать в опросах
Вы не можете прикреплять файлы к сообщениям
Вы не можете скачивать файлы

[  Время выполнения: 0,042 сек  |  MySQL: 0,003 сек (8%) · 3 запр.  |  GZIP выкл  |  Память: 422,49 KB / 1,75 MB / 1,37 MB  |  Лимит: 7 10 12  ]