Бугимен / The Boogeyman (2023) WEB-DL [H.265/2160p] [4K, HDR10+, 10-bit] [MVO]

Ответить на тему
 
Автор Сообщение

admin ®

Пол: Не указан

Стаж: 4 месяца 27 дня

Сообщений: 10110

Создавать темы 30-Янв-2024 17:42

[Цитировать]

Бугимен / The Boogeyman (2023) WEB-DL [H.265/2160p] - Производство: США, Канада / 20th Century Studios, 21 Laps Entertainment, NeoReel
Жанр: ужасы
Режиссер: Роб Сэвидж
Актеры: Вивьен Лира Блэр, Софи Тэтчер, Крис Мессина, Давид Дастмалчян, Лиза Гей Хэмилтон, Марин Айрлэнд, Мэдисон Ху, Мэдди Николс, Лиэнн Росс, Rio Sarah Machadio
Описание:
Старшеклассница Сэди Харпер и её младшая сестра Сойер переживают из-за недавней смерти матери и не получают особой поддержки от отца — терапевта, который пытается справиться с собственной болью. Когда отчаявшийся пациент неожиданно появляется в их доме в поисках помощи, он оставляет после себя ужасающую сверхъестественную сущность, которая охотится на семьи и питается страхами своих жертв.
Рейтинг MPAA: PG-13 (детям до 13 лет просмотр нежелателен)
Релиз от: Magnit Rus
Продолжительность: 01:38:53
Качество видео: WEB-DL
Перевод: Многоголосый профессиональный (TVShows, Jaskier), Многоголосый любительский (LineFilm)
Язык озвучки: русский, английский
Субтитры: русские, английские (Full, SDH)
Видео: HEVC/H.265, 3840x1634, ~24,7 Mbps
Аудио 1: AC3, 6 ch, 384 Кbps, русский (MVO, TVShows)
Аудио 2: AC3, 6 ch, 384 Кbps, русский (MVO, Jaskier)
Аудио 3: AC3, 2 ch, 192 Кbps, русский (MVO, LineFilm)
Аудио 4: AC3, 6 ch, 448 Кbps, английский

MediaInfo:

Общее
Уникальный идентификатор : 321369772662511912166335058703291050601 (0xF1C5911C5F1BD9E282F2B63C8068EA69)
Полное имя : The.Boogeyman.2023.MVO.HDR.2160p.x265.MR.mkv
Формат : Matroska
Версия формата : Version 4
Размер файла : 18,0 Гбайт
Продолжительность : 1 ч. 38 м.
Общий поток : 26,1 Мбит/сек
Частота кадров : 23,976 кадра/сек
Название фильма : The.Boogeyman.2023.MVO..HDR.2160p.x265.MR
Дата кодирования : 2023-09-02 04:23:51 UTC
Программа кодирования : mkvmerge v74.0.0 ('You Oughta Know') 64-bit
Библиотека кодирования : libebml v1.4.4 + libmatroska v1.7.1
Обложка : Yes
Attachments : poster.jpg / log.log / cover.jpg / small_cover.jpg
Видео
Идентификатор : 1
Формат : HEVC
Формат/Информация : High Efficiency Video Coding
Профиль формата : Main 10@L5@High
HDR format : SMPTE ST 2094 App 4, Version 1, HDR10+ Profile A compatible
Идентификатор кодека : V_MPEGH/ISO/HEVC
Продолжительность : 1 ч. 38 м.
Битрейт : 24,7 Мбит/сек
Ширина : 3 840 пикселей
Высота : 1 634 пикселя
Соотношение сторон : 2,35:1
Режим частоты кадров : Постоянный
Частота кадров : 23,976 кадра/сек
Цветовое пространство : YUV
Субдискретизация насыщенности : 4:2:0 (Type 2)
Битовая глубина : 10 бит
Бит/(Пиксели*Кадры) : 0.164
Размер потока : 17,1 Гбайт (95%)
Язык : English
Default : Да
Forced : Нет
Цветовой диапазон : Limited
Основные цвета : BT.2020
Характеристики трансфера : PQ
Коэффициенты матрицы : BT.2020 non-constant
Mastering display color primaries : BT.2020
Mastering display luminance : min: 0.0050 cd/m2, max: 1000 cd/m2
Maximum Content Light Level : 1502 cd/m2
Maximum Frame-Average Light Level : 643 cd/m2
Аудио #1
Идентификатор : 2
Формат : AC-3
Формат/Информация : Audio Coding 3
Коммерческое название : Dolby Digital
Идентификатор кодека : A_AC3
Продолжительность : 1 ч. 38 м.
Вид битрейта : Постоянный
Битрейт : 384 Кбит/сек
Каналы : 6 каналов
Channel layout : L R C LFE Ls Rs
Частота : 48,0 КГц
Частота кадров : 31,250 кадров/сек (1536 SPF)
Метод сжатия : С потерями
Размер потока : 271 Мбайт (1%)
Заголовок : MVO | TVShows
Язык : Russian
Service kind : Complete Main
Default : Да
Forced : Нет
Аудио #2
Идентификатор : 3
Формат : AC-3
Формат/Информация : Audio Coding 3
Коммерческое название : Dolby Digital
Идентификатор кодека : A_AC3
Продолжительность : 1 ч. 38 м.
Вид битрейта : Постоянный
Битрейт : 384 Кбит/сек
Каналы : 6 каналов
Channel layout : L R C LFE Ls Rs
Частота : 48,0 КГц
Частота кадров : 31,250 кадров/сек (1536 SPF)
Метод сжатия : С потерями
Размер потока : 271 Мбайт (1%)
Заголовок : MVO | Jaskier
Язык : Russian
Service kind : Complete Main
Default : Нет
Forced : Нет
Аудио #3
Идентификатор : 4
Формат : AC-3
Формат/Информация : Audio Coding 3
Коммерческое название : Dolby Digital
Идентификатор кодека : A_AC3
Продолжительность : 1 ч. 38 м.
Вид битрейта : Постоянный
Битрейт : 192 Кбит/сек
Каналы : 2 канала
Channel layout : L R
Частота : 48,0 КГц
Частота кадров : 31,250 кадров/сек (1536 SPF)
Метод сжатия : С потерями
Размер потока : 136 Мбайт (1%)
Заголовок : MVO | LineFilm
Язык : Russian
Service kind : Complete Main
Default : Нет
Forced : Нет
Аудио #4
Идентификатор : 5
Формат : AC-3
Формат/Информация : Audio Coding 3
Коммерческое название : Dolby Digital
Идентификатор кодека : A_AC3
Продолжительность : 1 ч. 38 м.
Вид битрейта : Постоянный
Битрейт : 448 Кбит/сек
Каналы : 6 каналов
Channel layout : L R C LFE Ls Rs
Частота : 48,0 КГц
Частота кадров : 31,250 кадров/сек (1536 SPF)
Метод сжатия : С потерями
Размер потока : 316 Мбайт (2%)
Язык : English
Service kind : Complete Main
Default : Нет
Forced : Нет
Текст #1
Идентификатор : 6
Формат : UTF-8
Идентификатор кодека : S_TEXT/UTF8
Идентификатор кодека/Информация : UTF-8 Plain Text
Продолжительность : 1 ч. 30 м.
Битрейт : 65 бит/сек
Частота кадров : 0,177 кадр/сек
Count of elements : 967
Размер потока : 43,6 Кбайт (0%)
Заголовок : Full | stirlooo
Язык : Russian
Default : Нет
Forced : Нет
Текст #2
Идентификатор : 7
Формат : UTF-8
Идентификатор кодека : S_TEXT/UTF8
Идентификатор кодека/Информация : UTF-8 Plain Text
Продолжительность : 1 ч. 30 м.
Битрейт : 38 бит/сек
Частота кадров : 0,178 кадр/сек
Count of elements : 968
Размер потока : 25,2 Кбайт (0%)
Заголовок : Full
Язык : English
Default : Нет
Forced : Нет
Текст #3
Идентификатор : 8
Формат : UTF-8
Идентификатор кодека : S_TEXT/UTF8
Идентификатор кодека/Информация : UTF-8 Plain Text
Продолжительность : 1 ч. 32 м.
Битрейт : 54 бит/сек
Частота кадров : 0,251 кадр/сек
Count of elements : 1397
Размер потока : 37,3 Кбайт (0%)
Заголовок : SDH
Язык : English
Default : Нет
Forced : Нет
Меню
00:00:00.000 : en:Chapter 01
00:02:46.624 : en:Chapter 02
00:07:12.849 : en:Chapter 03
00:09:47.712 : en:Chapter 04
00:15:55.080 : en:Chapter 05
00:19:18.074 : en:Chapter 06
00:21:19.571 : en:Chapter 07
00:26:15.658 : en:Chapter 08
00:31:27.887 : en:Chapter 09
00:35:56.322 : en:Chapter 10
00:42:15.493 : en:Chapter 11
00:46:47.766 : en:Chapter 12
00:52:05.083 : en:Chapter 13
00:58:44.566 : en:Chapter 14
01:06:35.870 : en:Chapter 15
01:12:45.865 : en:Chapter 16
01:17:55.008 : en:Chapter 17
01:25:36.678 : en:Chapter 18
01:29:09.349 : en:Chapter 19
01:32:11.698 : en:Chapter 20
Скриншоты:
Все одноименные релизы в КлубеВремя раздачи: 24/7 (минимум до появления первых 3-5 скачавших)
[Профиль] [ЛС]
Показать сообщения:    
Ответить на тему

Текущее время: 25-Фев 17:57

Часовой пояс: UTC ± 0



Вы не можете начинать темы
Вы не можете отвечать на сообщения
Вы не можете редактировать свои сообщения
Вы не можете удалять свои сообщения
Вы не можете голосовать в опросах
Вы не можете прикреплять файлы к сообщениям
Вы не можете скачивать файлы

[  Время выполнения: 0,043 сек  |  MySQL: 0,003 сек (7%) · 3 запр.  |  GZIP выкл  |  Память: 422,29 KB / 1,76 MB / 1,38 MB  |  Лимит: 10 9 9  ]