Рождение легенд / Spinning Gold (2023) BDRip [H.264/1080p-LQ]

Ответить на тему
 
Автор Сообщение

admin ®

Пол: Не указан

Стаж: 4 месяца 23 дня

Сообщений: 10110

Создавать темы 30-Янв-2024 17:42

[Цитировать]

Рождение легенд / Spinning Gold (2023) BDRip [H.264/1080p-LQ]- Производство: США / Hero Entertainment Group, The Boardwalk Entertainment Group
Жанр: биография, музыка, драма
Режиссер: Тимоти Скотт Богарт
Актеры: Джереми Джордан, Уиз Халифа, Джейсон Айзекс, Джейсон Дэруло, Мишель Монахэн, Себастьян Манискалко, Линдси Фонсека, Кэйли Кауэн, Пейтон Лист, Дэн Фоглер
Описание:
Что делать, если ты начинающий продюсер, и все, что у тебя есть — большие долги и несколько неизвестных музыкантов? Открыть свой лейбл! Бросить вызов условностям, рискнуть всем и перевернуть мир шоу-бизнеса с ног на голову. История рождения легендарной звукозаписывающей компании, которая навсегда изменила мир музыки.
Возраст: 18+ (зрителям, достигшим 18 лет. запрещено для детей)
Рейтинг MPAA: R (лицам до 17 лет обязательно присутствие взрослого)
Релиз от: LORDKILL
Продолжительность: 02:17:39
Качество видео: BDRip 1080p
Перевод: Дублированный (Баритон)
Язык озвучки: Русский
Субтитры: Русские (forced, full)
Видео: AVC/H.264, 1920x804, ~4025 Kbps
Аудио: AC3, 6 ch, 384 Kbps - Русский

MediaInfo:

[x264] frame I:1258  Avg QP:21.00  size: 93650
[x264] frame P:43607 Avg QP:21.43 size: 38775
[x264] frame B:153162 Avg QP:22.22 size: 15320
[x264] consecutive B-frames: 1.8% 2.6% 12.5% 14.8% 15.0% 47.5% 3.8% 0.6% 0.6% 0.4% 0.4%
General
Unique ID : 83964204302793240387470227053146781703 (0x3F2AEAE36640131718AABE8E9DC3B807)
Complete name : D:\РЕМУКС\Рождение легенд (2023).mkv
Format : Matroska
Format version : Version 4
File size : 4.24 GiB
Duration : 2 h 17 min
Overall bit rate : 4 411 kb/s
Frame rate : 23.976 FPS
Movie name : Рождение легенд / Spinning Gold (2023) - #LORDKILL#
Encoded date : 2023-09-02 09:01:30 UTC
Writing application : mkvmerge v32.0.0 ('Astral Progressions') 64-bit
Writing library : libebml v1.3.7 + libmatroska v1.5.0
Video
ID : 1
Format : AVC
Format/Info : Advanced Video Codec
Format profile : High@L4.1
Format settings : CABAC / 5 Ref Frames
Format settings, CABAC : Yes
Format settings, Reference : 5 frames
Codec ID : V_MPEG4/ISO/AVC
Duration : 2 h 17 min
Bit rate : 4 025 kb/s
Width : 1 920 pixels
Height : 804 pixels
Display aspect ratio : 2.40:1
Frame rate mode : Constant
Frame rate : 23.976 (24000/1001) FPS
Color space : YUV
Chroma subsampling : 4:2:0
Bit depth : 8 bits
Scan type : Progressive
Bits/(Pixel*Frame) : 0.109
Stream size : 3.87 GiB (91%)
Writing library : x264 core 164 r3095 baee400
Encoding settings : cabac=1 / ref=5 / deblock=1:-3:-3 / analyse=0x3:0x113 / me=umh / subme=10 / psy=1 / psy_rd=1.00:0.25 / mixed_ref=1 / me_range=32 / chroma_me=1 / trellis=2 / 8x8dct=1 / cqm=0 / deadzone=6,6 / fast_pskip=0 / chroma_qp_offset=-4 / threads=17 / lookahead_threads=4 / sliced_threads=0 / nr=0 / decimate=1 / interlaced=0 / bluray_compat=0 / constrained_intra=0 / bframes=10 / b_pyramid=2 / b_adapt=2 / b_bias=0 / direct=3 / weightb=1 / open_gop=0 / weightp=2 / keyint=240 / keyint_min=24 / scenecut=40 / intra_refresh=0 / rc=crf / mbtree=0 / crf=22.0 / qcomp=0.60 / qpmin=0 / qpmax=69 / qpstep=4 / ip_ratio=1.10 / pb_ratio=1.10 / aq=3:0.70
Language : English
Default : Yes
Forced : No
Audio
ID : 2
Format : AC-3
Format/Info : Audio Coding 3
Commercial name : Dolby Digital
Codec ID : A_AC3
Duration : 2 h 17 min
Bit rate mode : Constant
Bit rate : 384 kb/s
Channel(s) : 6 channels
Channel layout : L R C LFE Ls Rs
Sampling rate : 48.0 kHz
Frame rate : 31.250 FPS (1536 SPF)
Compression mode : Lossy
Stream size : 378 MiB (9%)
Title : Дубляж (Баритон)
Language : Russian
Service kind : Complete Main
Default : Yes
Forced : No
Text #1
ID : 3
Format : UTF-8
Codec ID : S_TEXT/UTF8
Codec ID/Info : UTF-8 Plain Text
Duration : 2 h 6 min
Bit rate : 1 b/s
Frame rate : 0.002 FPS
Count of elements : 16
Stream size : 1.54 KiB (0%)
Title : Forced
Language : Russian
Default : Yes
Forced : Yes
Text #2
ID : 4
Format : UTF-8
Codec ID : S_TEXT/UTF8
Codec ID/Info : UTF-8 Plain Text
Duration : 2 h 11 min
Bit rate : 102 b/s
Frame rate : 0.222 FPS
Count of elements : 1749
Stream size : 98.6 KiB (0%)
Title : Full
Language : Russian
Default : No
Forced : No
Menu
00:00:00.000 : Chapter 01
00:07:10.430 : Chapter 02
00:15:19.043 : Chapter 03
00:21:54.563 : Chapter 04
00:27:44.538 : Chapter 05
00:33:27.005 : Chapter 06
00:39:05.385 : Chapter 07
00:46:26.742 : Chapter 08
00:52:53.462 : Chapter 09
00:58:44.020 : Chapter 10
01:07:44.435 : Chapter 11
01:16:25.664 : Chapter 12
01:25:33.837 : Chapter 13
01:29:28.488 : Chapter 14
01:38:40.373 : Chapter 15
01:45:49.635 : Chapter 16
01:54:16.641 : Chapter 17
02:02:02.106 : Chapter 18
02:07:49.161 : Chapter 19
02:12:30.442 : Chapter 20
Скриншоты:
Все одноименные релизы в КлубеВремя раздачи: 24/7 (круглосуточно) (минимум до появления первых 10 скачавших)
[Профиль] [ЛС]
Показать сообщения:    
Ответить на тему

Текущее время: 22-Фев 01:06

Часовой пояс: UTC ± 0



Вы не можете начинать темы
Вы не можете отвечать на сообщения
Вы не можете редактировать свои сообщения
Вы не можете удалять свои сообщения
Вы не можете голосовать в опросах
Вы не можете прикреплять файлы к сообщениям
Вы не можете скачивать файлы

[  Время выполнения: 0,032 сек  |  MySQL: 0,002 сек (7%) · 3 запр.  |  GZIP выкл  |  Память: 421,85 KB / 1,74 MB / 1,34 MB  |  Лимит: 19 19 19  ]