Операция «Наполеон» / Operation Napoleon (2023) BDRip [H.264] [DVO]

Ответить на тему
 
Автор Сообщение

admin ®

Пол: Не указан

Стаж: 5 месяца 1 день

Сообщений: 10110

Создавать темы 30-Янв-2024 17:42

[Цитировать]

Операция «Наполеон» / Operation Napoleon (2023) BDRip - Производство: Исландия, Германия / Saga Film, Splendid Film, MMC Movies
Жанр: триллер
Режиссер: Оскар Тор Аксельссон
Продюсер: Anita Elsani, Ральф Кристианс, Бастиан Грис
Актеры: Вивиан Олафсдоттир, Джек Фокс, Иэн Глен, Вотан Вильке Мёринг, Оулавюр Дарри Оулафссон, Атли Оскар Фьяларссон, Аделе Они, Тростур Лео Гуннарссон, Нанна Кристин Магнусдоуттир, Anthony Bacigalupo
Описание:
Молодая исландская юристка Кристин оказывается втянутой в водоворот международного заговора после того, как её обвинили в убийстве, которого она не совершала. Единственный шанс выжить — раскрыть секрет старого немецкого самолёта времен Второй мировой войны, недавно обнаруженного в результате таяния одного из крупнейших ледников Исландии.
Релиз от: Rip by vitolinform
Продолжительность: 01:52:13
Качество видео: BDRip
Перевод: Двуголосый любительский (Pazl Voice)
Язык озвучки: русский, английский
Субтитры: английские, немецкие
Видео: AVC/H.264, 1024x426, ~1732 Kbps
Аудио 1: AC3, 6 ch, 384 Кbps | Русский (DVO, Pazl Voice)
Аудио 2: AC3, 6 ch, 448 Кbps | Английский

MediaInfo:

raw [info]: 1024x426p 1:1 @ 25/1 fps (cfr)
x264 [info]: using SAR=1/1
x264 [info]: using cpu capabilities: MMX2 SSE2Fast SSSE3 SSE4.2 AVX FMA3 BMI2 AVX2
x264 [info]: profile High, level 4.1, 4:2:0, 8-bit
x264 [info]: frame I:1353 Avg QP:13.90 size: 45717
x264 [info]: frame P:39431 Avg QP:15.24 size: 19363
x264 [info]: frame B:127565 Avg QP:18.18 size: 4958
x264 [info]: consecutive B-frames: 2.1% 4.9% 12.0% 22.6% 14.9% 39.1% 2.5% 0.4% 0.4% 0.2% 0.8%
x264 [info]: mb I I16..4: 12.5% 66.4% 21.1%
x264 [info]: mb P I16..4: 3.9% 17.0% 2.9% P16..4: 32.5% 22.6% 11.8% 0.0% 0.0% skip: 9.2%
x264 [info]: mb B I16..4: 0.4% 1.4% 0.2% B16..8: 34.2% 11.1% 2.9% direct: 5.0% skip:44.9% L0:42.6% L1:46.0% BI:11.4%
x264 [info]: 8x8 transform intra:70.8% inter:54.3%
x264 [info]: coded y,uvDC,uvAC intra: 69.7% 78.6% 65.4% inter: 18.4% 17.4% 8.7%
x264 [info]: i16 v,h,dc,p: 58% 19% 9% 14%
x264 [info]: i8 v,h,dc,ddl,ddr,vr,hd,vl,hu: 18% 14% 19% 6% 8% 8% 9% 8% 10%
x264 [info]: i4 v,h,dc,ddl,ddr,vr,hd,vl,hu: 25% 14% 11% 6% 9% 10% 8% 7% 8%
x264 [info]: i8c dc,h,v,p: 50% 24% 19% 8%
x264 [info]: Weighted P-Frames: Y:2.4% UV:1.0%
x264 [info]: ref P L0: 55.5% 8.7% 13.8% 4.8% 3.9% 2.9% 2.5% 1.3% 1.3% 1.0% 1.0% 0.8% 0.8% 0.6% 0.7% 0.5%
x264 [info]: ref B L0: 80.8% 8.3% 3.3% 1.7% 1.3% 1.1% 0.8% 0.5% 0.5% 0.4% 0.4% 0.3% 0.3% 0.2% 0.1%
x264 [info]: ref B L1: 96.0% 4.0%
x264 [info]: kb/s:1731.90
x264 [total]: encoded 168349 frames, 10.28 fps, 1731.90 kb/s
==================================================================
General
Unique ID : 91620918845931082712901719088923384159 (0x44ED8C0FA5D082AB5BDB13EA86D7995F)
Complete name : D:\Operaciya.Napoleon.2023.BDRip.AVC.mkv
Format : Matroska
Format version : Version 4
File size : 2.01 GiB
Duration : 1 h 52 min
Overall bit rate : 2 561 kb/s
Frame rate : 25.000 FPS
Movie name : Operation Napoleon (2023) BDRip AVC _ vitolinform
Encoded date : 2023-09-02 06:59:46 UTC
Writing application : mkvmerge v76.0 ('Celebration') 64-bit
Writing library : libebml v1.4.4 + libmatroska v1.7.1
Attachments : poster.jpg / log.log
Video
ID : 1
Format : AVC
Format/Info : Advanced Video Codec
Format profile : High@L4.1
Format settings : CABAC / 16 Ref Frames
Format settings, CABAC : Yes
Format settings, Reference frames : 16 frames
Codec ID : V_MPEG4/ISO/AVC
Duration : 1 h 52 min
Bit rate : 1 732 kb/s
Width : 1 024 pixels
Height : 426 pixels
Display aspect ratio : 2.40:1
Frame rate mode : Constant
Frame rate : 25.000 FPS
Color space : YUV
Chroma subsampling : 4:2:0
Bit depth : 8 bits
Scan type : Progressive
Bits/(Pixel*Frame) : 0.159
Stream size : 1.36 GiB (67%)
Title : Операция «Наполеон» / Napoleonsskjolin / Operation Napoleon (2023)
Writing library : x264 core 164 r3107 a8b68eb
Encoding settings : cabac=1 / ref=16 / deblock=1:-3:-3 / analyse=0x3:0x113 / me=umh / subme=10 / psy=1 / psy_rd=1.00:0.05 / mixed_ref=1 / me_range=32 / chroma_me=1 / trellis=2 / 8x8dct=1 / cqm=0 / deadzone=21,11 / fast_pskip=0 / chroma_qp_offset=-3 / threads=12 / lookahead_threads=5 / sliced_threads=0 / nr=0 / decimate=0 / interlaced=0 / bluray_compat=0 / constrained_intra=0 / bframes=10 / b_pyramid=2 / b_adapt=2 / b_bias=0 / direct=1 / weightb=1 / open_gop=0 / weightp=2 / keyint=240 / keyint_min=24 / scenecut=40 / intra_refresh=0 / rc_lookahead=40 / rc=crf / mbtree=0 / crf=18.0 / qcomp=0.60 / qpmin=0 / qpmax=69 / qpstep=4 / vbv_maxrate=50000 / vbv_bufsize=62500 / crf_max=0.0 / nal_hrd=none / filler=0 / ip_ratio=1.40 / pb_ratio=1.40 / aq=1:1.00
Language : English
Default : Yes
Forced : No
Color range : Limited
Color primaries : BT.709
Transfer characteristics : BT.709
Matrix coefficients : BT.709
Audio #1
ID : 2
Format : AC-3
Format/Info : Audio Coding 3
Commercial name : Dolby Digital
Codec ID : A_AC3
Duration : 1 h 52 min
Bit rate mode : Constant
Bit rate : 384 kb/s
Channel(s) : 6 channels
Channel layout : L R C LFE Ls Rs
Sampling rate : 48.0 kHz
Frame rate : 31.250 FPS (1536 SPF)
Compression mode : Lossy
Stream size : 309 MiB (15%)
Title : DVO | PazlVoice
Language : Russian
Service kind : Complete Main
Default : Yes
Forced : No
Audio #2
ID : 3
Format : AC-3
Format/Info : Audio Coding 3
Commercial name : Dolby Digital
Codec ID : A_AC3
Duration : 1 h 52 min
Bit rate mode : Constant
Bit rate : 448 kb/s
Channel(s) : 6 channels
Channel layout : L R C LFE Ls Rs
Sampling rate : 48.0 kHz
Frame rate : 31.250 FPS (1536 SPF)
Compression mode : Lossy
Stream size : 361 MiB (17%)
Title : English
Language : English
Service kind : Complete Main
Default : No
Forced : No
Text #1
ID : 4
Format : UTF-8
Codec ID : S_TEXT/UTF8
Codec ID/Info : UTF-8 Plain Text
Duration : 1 h 47 min
Bit rate : 41 b/s
Frame rate : 0.183 FPS
Count of elements : 1179
Stream size : 32.9 KiB (0%)
Title : Full
Language : English
Default : No
Forced : No
Text #2
ID : 5
Format : UTF-8
Codec ID : S_TEXT/UTF8
Codec ID/Info : UTF-8 Plain Text
Duration : 1 h 50 min
Bit rate : 44 b/s
Frame rate : 0.156 FPS
Count of elements : 1032
Stream size : 36.0 KiB (0%)
Title : Full
Language : Dutch
Default : No
Forced : No
Text #3
ID : 6
Format : UTF-8
Codec ID : S_TEXT/UTF8
Codec ID/Info : UTF-8 Plain Text
Duration : 1 h 47 min
Bit rate : 45 b/s
Frame rate : 0.154 FPS
Count of elements : 989
Stream size : 35.7 KiB (0%)
Title : Full
Language : German
Default : No
Forced : No
Menu
00:00:00.005 : en:Глава 01
00:10:23.245 : en:Глава 02
00:18:51.205 : en:Глава 03
00:27:14.045 : en:Глава 04
00:37:21.485 : en:Глава 05
00:45:53.005 : en:Глава 06
00:55:07.605 : en:Глава 07
01:06:55.885 : en:Глава 08
01:15:36.405 : en:Глава 09
01:27:05.565 : en:Глава 10
01:36:19.005 : en:Глава 11
01:45:33.485 : en:Глава 12
Скриншоты:
Все одноименные релизы в КлубеВремя раздачи: как минимум до появления первых 3-5 скачавших, 24/7 (мультитрекерная раздача)
[Профиль] [ЛС]
Показать сообщения:    
Ответить на тему

Текущее время: 29-Фев 13:06

Часовой пояс: UTC ± 0



Вы не можете начинать темы
Вы не можете отвечать на сообщения
Вы не можете редактировать свои сообщения
Вы не можете удалять свои сообщения
Вы не можете голосовать в опросах
Вы не можете прикреплять файлы к сообщениям
Вы не можете скачивать файлы

[  Время выполнения: 0,041 сек  |  MySQL: 0,004 сек (9%) · 3 запр.  |  GZIP выкл  |  Память: 422,29 KB / 1,75 MB / 1,37 MB  |  Лимит: 16 17 18  ]