Последнее путешествие «Деметра» / The Last Voyage of the Demeter (2023) WEB-DL [H.264/1080p] [MVO]

Ответить на тему
 
Автор Сообщение

admin ®

Пол: Не указан

Стаж: 5 месяца 1 день

Сообщений: 10110

Создавать темы 30-Янв-2024 17:42

[Цитировать]

Последнее путешествие «Деметра» / The Last Voyage of the Demeter (2023) WEB-DL [H.264/1080p]- Производство: США, Великобритания, Мальта, Италия, Германия, Amblin Partners, Dreamworks Pictures, Firebrand Video
Жанр: ужасы
Режиссер: Андре Эвредал
Актеры: Кори Хокинс, Эшлинг Франчози, Лиам Каннингэм, Давид Дастмалчян, Крис Уолли, Джон Джон Брионес, Стефан Капичич, Мартин Фурулунд, Николай Николаефф, Вуди Норман
Описание:
Дракула путешествует в Лондон на русском корабле «Деметр» и потихоньку ест матросов и пассажиров.
Рейтинг MPAA: R (лицам до 17 лет обязательно присутствие взрослого)
Продолжительность: 01:58:39
Качество видео: WEB-DL
Перевод: Профессиональный многоголосый (Jaskier, HDRezka Studio, TVShows)
Язык озвучки: русский, английский
Субтитры: Русские (Forced, Full), английские (full, SDH)
Видео: AVC/H.264, 1920x1080, 12.3 Мbps
Аудио 1: AC3, 6 ch, 384 Кbps | Русский (MVO, Jaskier)
Аудио 2: AC3, 6 ch, 448 Кbps | Русский (MVO, HDRezka Studio)
Аудио 3: AC3, 6 ch, 384 Кbps | Русский (MVO, TVShows)
Аудио 4: E-AC3 JOC, 6 ch, 768 Kbps | английский

MediaInfo:

Общее
Уникальный идентификатор : 126343487360201797064238529660781906910 (0x5F0CDEDCEC896E96D5AC3485CD6CCBDE)
Полное имя : D:\The.Last.Voyage.of.the.Demeter.1080p.mkv
Формат : Matroska
Версия формата : Version 4
Размер файла : 11,8 Гбайт
Продолжительность : 1 ч. 58 м.
Общий поток : 14,3 Мбит/сек
Частота кадров : 23,976 кадра/сек
Дата кодирования : 2023-09-02 11:01:33 UTC
Программа кодирования : mkvmerge v79.0 ('Funeral Pyres') 64-bit
Библиотека кодирования : libebml v1.4.4 + libmatroska v1.7.1
Обложка : Yes
Attachments : poster.jpg / log.log / cover.jpg / small_cover.jpg
Видео
Идентификатор : 1
Формат : AVC
Формат/Информация : Advanced Video Codec
Профиль формата : High@L4.2
Настройки формата : CABAC / 4 Ref Frames
Параметр CABAC формата : Да
Параметр RefFrames формата : 4 кадра
Параметр GOP формата : M=1, N=25
Идентификатор кодека : V_MPEG4/ISO/AVC
Продолжительность : 1 ч. 58 м.
Битрейт : 12,3 Мбит/сек
Ширина : 1 920 пикселей
Высота : 1 080 пикселей
Соотношение сторон : 16:9
Режим частоты кадров : Постоянный
Частота кадров : 23,976 (24000/1001) кадра/сек
Стандарт вещания : Component
Цветовое пространство : YUV
Субдискретизация насыщенности : 4:2:0
Битовая глубина : 8 бит
Тип развёртки : Прогрессивная
Бит/(Пиксели*Кадры) : 0.247
Размер потока : 10,2 Гбайт (86%)
Заголовок : The.Last.Voyage.of.the.Demeter.WEB-DL.1080.TVShows_KORSARS
Язык : English
Default : Да
Forced : Нет
Цветовой диапазон : Limited
Коэффициенты матрицы : BT.709
Аудио #1
Идентификатор : 2
Формат : AC-3
Формат/Информация : Audio Coding 3
Коммерческое название : Dolby Digital
Идентификатор кодека : A_AC3
Продолжительность : 1 ч. 58 м.
Вид битрейта : Постоянный
Битрейт : 384 Кбит/сек
Каналы : 6 каналов
Channel layout : L R C LFE Ls Rs
Частота : 48,0 КГц
Частота кадров : 31,250 кадров/сек (1536 SPF)
Метод сжатия : С потерями
Размер потока : 326 Мбайт (3%)
Заголовок : Jaskier
Язык : Russian
Service kind : Complete Main
Default : Да
Forced : Нет
Аудио #2
Идентификатор : 3
Формат : AC-3
Формат/Информация : Audio Coding 3
Коммерческое название : Dolby Digital
Идентификатор кодека : A_AC3
Продолжительность : 1 ч. 58 м.
Вид битрейта : Постоянный
Битрейт : 448 Кбит/сек
Каналы : 6 каналов
Channel layout : L R C LFE Ls Rs
Частота : 48,0 КГц
Частота кадров : 31,250 кадров/сек (1536 SPF)
Метод сжатия : С потерями
Размер потока : 380 Мбайт (3%)
Заголовок : HDRezka Studio
Язык : Russian
Service kind : Complete Main
Default : Нет
Forced : Нет
Аудио #3
Идентификатор : 4
Формат : AC-3
Формат/Информация : Audio Coding 3
Коммерческое название : Dolby Digital
Идентификатор кодека : A_AC3
Продолжительность : 1 ч. 58 м.
Вид битрейта : Постоянный
Битрейт : 384 Кбит/сек
Каналы : 6 каналов
Channel layout : L R C LFE Ls Rs
Частота : 48,0 КГц
Частота кадров : 31,250 кадров/сек (1536 SPF)
Метод сжатия : С потерями
Размер потока : 326 Мбайт (3%)
Заголовок : TVShows
Язык : Russian
Service kind : Complete Main
Default : Нет
Forced : Нет
Аудио #4
Идентификатор : 5
Формат : E-AC-3 JOC
Формат/Информация : Enhanced AC-3 with Joint Object Coding
Коммерческое название : Dolby Digital Plus with Dolby Atmos
Идентификатор кодека : A_EAC3
Продолжительность : 1 ч. 58 м.
Вид битрейта : Постоянный
Битрейт : 768 Кбит/сек
Каналы : 6 каналов
Channel layout : L R C LFE Ls Rs
Частота : 48,0 КГц
Частота кадров : 31,250 кадров/сек (1536 SPF)
Метод сжатия : С потерями
Задержка видео : 1 с. 0 мс.
Размер потока : 652 Мбайт (5%)
Язык : English
Service kind : Complete Main
Default : Нет
Forced : Нет
Complexity index : 16
Number of dynamic objects : 15
Bed channel count : 1 канал
Bed channel configuration : LFE
Текст #1
Идентификатор : 6
Формат : UTF-8
Идентификатор кодека : S_TEXT/UTF8
Идентификатор кодека/Информация : UTF-8 Plain Text
Продолжительность : 1 ч. 17 м.
Битрейт : 2 бит/сек
Частота кадров : 0,004 кадр/сек
Count of elements : 19
Размер потока : 1,20 Кбайт (0%)
Заголовок : Forced
Язык : Russian
Default : Да
Forced : Нет
Текст #2
Идентификатор : 7
Формат : UTF-8
Идентификатор кодека : S_TEXT/UTF8
Идентификатор кодека/Информация : UTF-8 Plain Text
Продолжительность : 1 ч. 48 м.
Битрейт : 64 бит/сек
Частота кадров : 0,162 кадр/сек
Count of elements : 1053
Размер потока : 51,3 Кбайт (0%)
Заголовок : Full
Язык : Russian
Default : Нет
Forced : Нет
Текст #3
Идентификатор : 8
Формат : UTF-8
Идентификатор кодека : S_TEXT/UTF8
Идентификатор кодека/Информация : UTF-8 Plain Text
Продолжительность : 1 ч. 47 м.
Битрейт : 42 бит/сек
Частота кадров : 0,169 кадр/сек
Count of elements : 1091
Размер потока : 33,6 Кбайт (0%)
Заголовок : Full
Язык : English
Default : Нет
Forced : Нет
Текст #4
Идентификатор : 9
Формат : UTF-8
Идентификатор кодека : S_TEXT/UTF8
Идентификатор кодека/Информация : UTF-8 Plain Text
Продолжительность : 1 ч. 58 м.
Битрейт : 47 бит/сек
Частота кадров : 0,214 кадр/сек
Count of elements : 1518
Размер потока : 41,3 Кбайт (0%)
Заголовок : SDH
Язык : English
Default : Нет
Forced : Нет
Меню
00:00:01.000 : en:Chapter 01
00:04:10.499 : en:Chapter 02
00:12:05.933 : en:Chapter 03
00:19:51.440 : en:Chapter 04
00:25:28.235 : en:Chapter 05
00:34:09.840 : en:Chapter 06
00:43:10.964 : en:Chapter 07
00:47:37.940 : en:Chapter 08
00:55:08.724 : en:Chapter 09
01:05:39.146 : en:Chapter 10
01:10:36.110 : en:Chapter 11
01:17:42.953 : en:Chapter 12
01:26:08.834 : en:Chapter 13
01:32:46.273 : en:Chapter 14
01:44:02.282 : en:Chapter 15
01:49:10.966 : en:Chapter 16
Скриншоты:
Все одноименные релизы в КлубеВремя раздачи: до появления 3-5 скачавших
[Профиль] [ЛС]
Показать сообщения:    
Ответить на тему

Текущее время: 29-Фев 11:09

Часовой пояс: UTC ± 0



Вы не можете начинать темы
Вы не можете отвечать на сообщения
Вы не можете редактировать свои сообщения
Вы не можете удалять свои сообщения
Вы не можете голосовать в опросах
Вы не можете прикреплять файлы к сообщениям
Вы не можете скачивать файлы

[  Время выполнения: 0,035 сек  |  MySQL: 0,002 сек (7%) · 3 запр.  |  GZIP выкл  |  Память: 422,29 KB / 1,76 MB / 1,38 MB  |  Лимит: 10 11 11  ]