Безумная поездочка / Joy Ride (2023) WEB-DL [H.264/1080p]

Ответить на тему
 
Автор Сообщение

admin ®

Пол: Не указан

Стаж: 6 месяца 22 дня

Сообщений: 11520

Создавать темы 30-Янв-2024 17:41

[Цитировать]

Безумная поездочка / Joy Ride (2023) WEB-DL [H.264/1080p]- Производство: США, Великобритания / Lionsgate, Point Grey Pictures
Жанр: комедия
Режиссер: Аделе Лим
Актеры: Эшли Пак, Шерри Кола, Стефани Сюй, Сабрина Ву, Дэбби Фэн, Кеннет Лью, Энни Мумоло, Дэвид Денман, Belle Zhang, Lennon Yee
Описание:
Одри — американка китайского происхождения, удочерённая ещё в младенчестве — отправляется в командировку в Пекин закрыть сделку, от которой зависит её карьера. В качестве переводчика она берёт с собой Лоло, лучшую подругу из семьи китайских мигрантов, и в аэропорту узнаёт, что та ещё позвала с ними свою кузину-фанатку кей-попа, а в Китае к ним присоединяется бывшая сокурсница Кэт, актриса популярных дорам. Но китайский партнёр заявляет, что не будет вести бизнес с тем, кто не знает своего происхождения. Теперь вся шумная компания отправляется на поиски биологической матери Одри.
Возраст: 16+ (зрителям, достигшим 16 лет)
Рейтинг MPAA: R (лицам до 17 лет обязательно присутствие взрослого)
Продолжительность: 01:34:48
Качество видео: WEB-DL (1080p)
Перевод: Дублированный, профессиональный многоголосый
Язык озвучки: Русский, английский
Субтитры: Русские (forced), английские (Full, SDH)
Видео: AVC/H.264, 1920x800, ~8485 Kbps
Аудио #1: E-АС3, 6ch, 768 Kbps - Русский (Dub - HotVoice41)
Аудио #2: AC3, 6 ch, 448 Kbps - Русский (MVO - HDRezka Studio)
Аудио #3: E-AC3+Atmos, 6 ch, 768 Kbps - Английский (Оригинал)

MediaInfo:

Общее
Уникальный идентификатор : 205490495980926139120175400677567712364 (0x9A9807AAC7FFF48D8A38FA3D3D894C6C)
Полное имя : D:\NNM\Безумная поездочка\Joy.Ride.2023.WEB-DL.1080p.mkv
Формат : Matroska
Версия формата : Version 4
Размер файла : 7,07 Гбайт
Продолжительность : 1 ч. 34 м.
Общий поток : 10,7 Мбит/сек
Дата кодирования : UTC 2023-09-02 18:16:03
Программа кодирования : mkvmerge v6.9.1 ('Blue Panther') 32bit built on Apr 18 2014 18:15:44
Библиотека кодирования : libebml v1.3.0 + libmatroska v1.4.1
Видео
Идентификатор : 1
Формат : AVC
Формат/Информация : Advanced Video Codec
Профиль формата : High@L4
Настройки формата : CABAC / 4 Ref Frames
Параметр CABAC формата : Да
Параметр RefFrames формата : 4 кадра
Идентификатор кодека : V_MPEG4/ISO/AVC
Продолжительность : 1 ч. 34 м.
Вид битрейта : Постоянный
Битрейт : 8 485 Кбит/сек
Номинальный битрейт : 10 000 Кбит/сек
Ширина : 1 920 пикселей
Высота : 800 пикселей
Соотношение сторон : 2,40:1
Режим частоты кадров : Постоянный
Частота кадров : 23,976 (24000/1001) кадра/сек
Цветовое пространство : YUV
Субдискретизация насыщенности : 4:2:0
Битовая глубина : 8 бит
Тип развёртки : Прогрессивная
Бит/(Пиксели*Кадры) : 0.230
Размер потока : 5,62 Гбайт (79%)
Заголовок : Joy Ride (2023) AMAZON
Default : Да
Forced : Нет
Цветовой диапазон : Limited
Основные цвета : BT.709
Характеристики трансфера : BT.709
Коэффициенты матрицы : BT.709
Аудио #1
Идентификатор : 2
Формат : E-AC-3
Формат/Информация : Enhanced AC-3
Коммерческое название : Dolby Digital Plus
Идентификатор кодека : A_EAC3
Продолжительность : 1 ч. 34 м.
Вид битрейта : Постоянный
Битрейт : 768 Кбит/сек
Каналы : 6 каналов
Channel layout : L R C LFE Ls Rs
Частота : 48,0 КГц
Частота кадров : 31,250 кадров/сек (1536 SPF)
Метод сжатия : С потерями
Размер потока : 521 Мбайт (7%)
Заголовок : Дубляж - HotVoice 41
Язык : Russian
Service kind : Complete Main
Default : Да
Forced : Нет
Аудио #2
Идентификатор : 3
Формат : AC-3
Формат/Информация : Audio Coding 3
Коммерческое название : Dolby Digital
Идентификатор кодека : A_AC3
Продолжительность : 1 ч. 34 м.
Вид битрейта : Постоянный
Битрейт : 448 Кбит/сек
Каналы : 6 каналов
Channel layout : L R C LFE Ls Rs
Частота : 48,0 КГц
Частота кадров : 31,250 кадров/сек (1536 SPF)
Метод сжатия : С потерями
Размер потока : 304 Мбайт (4%)
Заголовок : Профессиональный многоголосый - HDRezka Studio
Язык : Russian
Service kind : Complete Main
Default : Нет
Forced : Нет
Аудио #3
Идентификатор : 4
Формат : E-AC-3 JOC
Формат/Информация : Enhanced AC-3 with Joint Object Coding
Коммерческое название : Dolby Digital Plus with Dolby Atmos
Идентификатор кодека : A_EAC3
Продолжительность : 1 ч. 34 м.
Вид битрейта : Постоянный
Битрейт : 768 Кбит/сек
Каналы : 6 каналов
Channel layout : L R C LFE Ls Rs
Частота : 48,0 КГц
Частота кадров : 31,250 кадров/сек (1536 SPF)
Метод сжатия : С потерями
Размер потока : 521 Мбайт (7%)
Заголовок : Оригинал
Язык : English
Service kind : Complete Main
Default : Нет
Forced : Нет
Complexity index : 16
Number of dynamic objects : 15
Bed channel count : 1 канал
Bed channel configuration : LFE
Текст #1
Идентификатор : 5
Формат : UTF-8
Идентификатор кодека : S_TEXT/UTF8
Идентификатор кодека/Информация : UTF-8 Plain Text
Заголовок : Forced - HDRezka
Язык : Russian
Default : Да
Forced : Нет
Текст #2
Идентификатор : 6
Формат : UTF-8
Идентификатор кодека : S_TEXT/UTF8
Идентификатор кодека/Информация : UTF-8 Plain Text
Заголовок : Полные
Язык : English
Default : Нет
Forced : Нет
Текст #3
Идентификатор : 7
Формат : UTF-8
Идентификатор кодека : S_TEXT/UTF8
Идентификатор кодека/Информация : UTF-8 Plain Text
Заголовок : SDH
Язык : English
Default : Нет
Forced : Нет
Меню
00:00:00.020 : en:Chapter 01
00:02:23.204 : en:Chapter 02
00:15:00.378 : en:Chapter 03
00:28:34.734 : en:Chapter 04
00:41:50.071 : en:Chapter 05
00:56:01.589 : en:Chapter 06
01:06:22.419 : en:Chapter 07
01:18:51.710 : en:Chapter 08
01:28:05.764 : en:Chapter 09
Скриншоты: Все одноименные релизы в КлубеВремя раздачи: 24/7 (до 10-ти скачавших)
[Профиль] [ЛС]
Показать сообщения:    
Ответить на тему

Текущее время: 20-Апр 20:10

Часовой пояс: UTC ± 0



Вы не можете начинать темы
Вы не можете отвечать на сообщения
Вы не можете редактировать свои сообщения
Вы не можете удалять свои сообщения
Вы не можете голосовать в опросах
Вы не можете прикреплять файлы к сообщениям
Вы не можете скачивать файлы

[  Время выполнения: 0,032 сек  |  MySQL: 0,004 сек (13%) · 3 запр.  |  GZIP выкл  |  Память: 422,29 KB / 1,73 MB / 1,35 MB  |  Лимит: 5 5 5  ]