Рождение легенд / Spinning Gold (2023) BDRip [H.264/1080p]

Ответить на тему
 
Автор Сообщение

admin ®

Пол: Не указан

Стаж: 7 месяца 26 дня

Сообщений: 11520

Создавать темы 30-Янв-2024 17:41

[Цитировать]

Рождение легенд / Spinning Gold (2023) BDRip [H.264/1080p]- Производство: США / Hero Entertainment Group, The Boardwalk Entertainment Group
Жанр: Биография, музыка, драма
Режиссер: Тимоти Скотт Богарт
Продюсер:
Актеры: Джереми Джордан, Уиз Халифа, Джейсон Айзекс, Джейсон Дэруло, Мишель Монахэн, Джей Фэро, Линдси Фонсека, Дэн Фоглер, Пейтон Лист, Джеймс Волк
Описание: Что делать, если ты начинающий продюсер, и все, что у тебя есть — большие долги и несколько неизвестных музыкантов? Открыть свой лейбл! Бросить вызов условностям, рискнуть всем и перевернуть мир шоу-бизнеса с ног на голову. История рождения легендарной звукозаписывающей компании, которая навсегда изменила мир музыки.
Возраст: 18+ (Зрителям, достигшим 18 лет)
Рейтинг MPAA: R (Лицам до 17 обязательно присутствие взрослых)
Релиз от: Soft-Torrent - торрент игры программы фильмы книги скачать
Продолжительность: 02:17:39
Качество видео: BDRip 1080p
Перевод: Дублированный, Профессиональный многоголосый
Язык озвучки: Русский, Английский
Субтитры: Русские (Forced, Full), Английские (Full, SDH)
Видео: AVC/H.264, 1920x804, 14.9 Mbps, 23.976 fps
Аудио 1: AC-3, 6 ch, 384 Kbps | Русский Dub Баритон
Аудио 2: AC-3, 6 ch, 384 Kbps | Русский MVO TVShows
Аудио 3: AC-3, 6 ch, 384 Kbps | Русский MVO Jaskier 18+
Аудио 4: E-AC-3, 6 ch, 1024 Kbps | Английский
***Присутствует небольшая вставка закадрового многоголосого перевода.

Mediainfo:

General
Unique ID : 18345972037503091173377332905008807704 (0xDCD4E41BD16862FDD1C2FBF4591BF18)
Complete name : /Volumes/Promise Pegasus/Spinning.Gold.2023.BDRip.1080p.pk.mkv
Format : Matroska
Format version : Version 4
File size : 16.4 GiB
Duration : 2 h 17 min
Overall bit rate : 17.1 Mb/s
Frame rate : 23.976 FPS
Movie name : Spinning Gold 2023 BDRip 1080p pk
Encoded date : 2023-09-02 12:53:29 UTC
Writing application : mkvmerge v79.0 ('Funeral Pyres') 64-bit
Writing library : libebml v1.4.4 + libmatroska v1.7.1
Cover : Yes
Attachments : cover.jpg / small_cover.jpg
Video
ID : 1
Format : AVC
Format/Info : Advanced Video Codec
Format profile : High@L4.1
Format settings : CABAC / 5 Ref Frames
Format settings, CABAC : Yes
Format settings, Reference frames : 5 frames
Codec ID : V_MPEG4/ISO/AVC
Duration : 2 h 17 min
Bit rate : 14.9 Mb/s
Width : 1 920 pixels
Height : 804 pixels
Display aspect ratio : 2.40:1
Frame rate mode : Constant
Frame rate : 23.976 (24000/1001) FPS
Color space : YUV
Chroma subsampling : 4:2:0
Bit depth : 8 bits
Scan type : Progressive
Bits/(Pixel*Frame) : 0.402
Stream size : 14.3 GiB (87%)
Writing library : x264 core 164 r3107+58M encoded by pk5360114 from Russia
Encoding settings : cabac=1 / ref=5 / deblock=1:-3:-3 / analyse=0x3:0x133 / me=esa / subme=11 / psy=1 / fade_compensate=0.00 / psy_rd=1.00:0.00 / mixed_ref=1 / me_range=48 / chroma_me=1 / trellis=2 / 8x8dct=1 / cqm=0 / deadzone=21,11 / fast_pskip=0 / chroma_qp_offset=-2 / threads=25 / lookahead_threads=4 / sliced_threads=0 / nr=0 / decimate=0 / interlaced=0 / bluray_compat=0 / constrained_intra=0 / fgo=0 / bframes=8 / b_pyramid=2 / b_adapt=2 / b_bias=0 / direct=3 / weightb=1 / open_gop=0 / weightp=2 / keyint=240 / keyint_min=23 / scenecut=40 / intra_refresh=0 / rc_lookahead=60 / rc=crf / mbtree=0 / crf=16.4000 / qcomp=0.65 / qpmin=0:0:0 / qpmax=69:69:69 / qpstep=4 / vbv_maxrate=62500 / vbv_bufsize=78125 / crf_max=0.0 / nal_hrd=none / filler=0 / ip_ratio=1.30 / pb_ratio=1.20 / aq=3:0.80 / aq-sensitivity=10.00 / aq-factor=1.00:1.00:1.00:1.00 / aq2=0 / aq3=0
Language : English
Default : Yes
Forced : No
Color range : Limited
Color primaries : BT.709
Transfer characteristics : BT.709
Matrix coefficients : BT.709
Audio #1
ID : 2
Format : AC-3
Format/Info : Audio Coding 3
Commercial name : Dolby Digital
Codec ID : A_AC3
Duration : 2 h 17 min
Bit rate mode : Constant
Bit rate : 384 kb/s
Channel(s) : 6 channels
Channel layout : L R C LFE Ls Rs
Sampling rate : 48.0 kHz
Frame rate : 31.250 FPS (1536 SPF)
Compression mode : Lossy
Stream size : 378 MiB (2%)
Title : Russian Dub Баритон
Language : Russian
Service kind : Complete Main
Default : Yes
Forced : No
Audio #2
ID : 3
Format : AC-3
Format/Info : Audio Coding 3
Commercial name : Dolby Digital
Codec ID : A_AC3
Duration : 2 h 17 min
Bit rate mode : Constant
Bit rate : 384 kb/s
Channel(s) : 6 channels
Channel layout : L R C LFE Ls Rs
Sampling rate : 48.0 kHz
Frame rate : 31.250 FPS (1536 SPF)
Compression mode : Lossy
Stream size : 378 MiB (2%)
Title : Russian MVO TVShows
Language : Russian
Service kind : Complete Main
Default : No
Forced : No
Audio #3
ID : 4
Format : AC-3
Format/Info : Audio Coding 3
Commercial name : Dolby Digital
Codec ID : A_AC3
Duration : 2 h 17 min
Bit rate mode : Constant
Bit rate : 384 kb/s
Channel(s) : 6 channels
Channel layout : L R C LFE Ls Rs
Sampling rate : 48.0 kHz
Frame rate : 31.250 FPS (1536 SPF)
Compression mode : Lossy
Stream size : 378 MiB (2%)
Title : Russian MVO Jaskier 18 +
Language : Russian
Service kind : Complete Main
Default : No
Forced : No
Audio #4
ID : 5
Format : E-AC-3
Format/Info : Enhanced AC-3
Commercial name : Dolby Digital Plus
Codec ID : A_EAC3
Duration : 2 h 17 min
Bit rate mode : Constant
Bit rate : 1 024 kb/s
Channel(s) : 6 channels
Channel layout : L R C LFE Ls Rs
Sampling rate : 48.0 kHz
Frame rate : 31.250 FPS (1536 SPF)
Compression mode : Lossy
Stream size : 1 008 MiB (6%)
Title : English Original
Language : English
Service kind : Complete Main
Default : No
Forced : No
Text #1
ID : 6
Format : UTF-8
Codec ID : S_TEXT/UTF8
Codec ID/Info : UTF-8 Plain Text
Duration : 2 h 6 min
Bit rate : 1 b/s
Frame rate : 0.002 FPS
Count of elements : 16
Stream size : 1.54 KiB (0%)
Title : Russian forced
Language : Russian
Default : Yes
Forced : No
Text #2
ID : 7
Format : UTF-8
Codec ID : S_TEXT/UTF8
Codec ID/Info : UTF-8 Plain Text
Duration : 2 h 11 min
Bit rate : 102 b/s
Frame rate : 0.222 FPS
Count of elements : 1749
Stream size : 98.6 KiB (0%)
Title : Russian full
Language : Russian
Default : No
Forced : No
Text #3
ID : 8
Format : UTF-8
Codec ID : S_TEXT/UTF8
Codec ID/Info : UTF-8 Plain Text
Duration : 2 h 16 min
Bit rate : 81 b/s
Frame rate : 0.298 FPS
Count of elements : 2433
Stream size : 81.7 KiB (0%)
Title : English full
Language : English
Default : No
Forced : No
Text #4
ID : 9
Format : UTF-8
Codec ID : S_TEXT/UTF8
Codec ID/Info : UTF-8 Plain Text
Duration : 2 h 17 min
Bit rate : 84 b/s
Frame rate : 0.315 FPS
Count of elements : 2588
Stream size : 85.2 KiB (0%)
Title : English SDH
Language : English
Default : No
Forced : No
Menu
00:00:00.000 : en:Chapter 01
00:07:10.430 : en:Chapter 02
00:15:19.043 : en:Chapter 03
00:21:54.563 : en:Chapter 04
00:27:44.538 : en:Chapter 05
00:33:27.005 : en:Chapter 06
00:39:05.385 : en:Chapter 07
00:46:26.742 : en:Chapter 08
00:52:53.462 : en:Chapter 09
00:58:44.020 : en:Chapter 10
01:07:44.435 : en:Chapter 11
01:16:25.664 : en:Chapter 12
01:25:33.837 : en:Chapter 13
01:29:28.488 : en:Chapter 14
01:38:40.373 : en:Chapter 15
01:45:49.635 : en:Chapter 16
01:54:16.641 : en:Chapter 17
02:02:02.106 : en:Chapter 18
02:07:49.161 : en:Chapter 19
02:12:30.442 : en:Chapter 20

x264 log:

x264 [info]: frame I:1334  Avg QP:13.40  size:226002
x264 [info]: frame P:43379 Avg QP:14.80 size:120421
x264 [info]: frame B:153314 Avg QP:15.71 size: 64255
x264 [info]: consecutive B-frames: 1.8% 2.5% 12.0% 14.9% 15.0% 48.0% 4.1% 0.8% 0.8%
x264 [info]: kb/s:14893.56

Скриншоты сравнения






Скриншоты:
Все одноименные релизы в КлубеВремя раздачи: 24/7 (круглосуточно) (до появления первых 3-5 скачавших)
[Профиль] [ЛС]
Показать сообщения:    
Ответить на тему

Текущее время: 24-Май 14:21

Часовой пояс: UTC ± 0



Вы не можете начинать темы
Вы не можете отвечать на сообщения
Вы не можете редактировать свои сообщения
Вы не можете удалять свои сообщения
Вы не можете голосовать в опросах
Вы не можете прикреплять файлы к сообщениям
Вы не можете скачивать файлы

[  Время выполнения: 0,046 сек  |  MySQL: 0,003 сек (7%) · 3 запр.  |  GZIP выкл  |  Память: 422,29 KB / 1,77 MB / 1,4 MB  |  Лимит: 9 10 11  ]