Проклятие монахини 2 / The Nun II (2023) скачать торрент

Ответить на тему
 
Автор Сообщение

admin ®

Пол: Не указан

Стаж: 7 месяца 24 дня

Сообщений: 11520

Создавать темы 03-Окт-2023 19:06

[Цитировать]

Проклятие монахини 2 / The Nun II (2023) скачать торрент- Производство: США / Atomic Monster, New Line Cinema
Жанр: ужасы
Режиссер: Майкл Чавес
Актеры: Таисса Фармига, Йонас Блоке, Сторм Рид, Анна Попплуэлл, Бонни Ааронс, Katelyn Rose Downey, Сюзэнн Бертиш, Léontine d'Oncieu, Anouk Darwin Homewood, Питер Хадсон
Описание:
Франция, 1956 год. Сестра Ирэн сталкивается со злобным демоном, принявшим обличие монахини.
Возраст: 18+ (зрителям, достигшим 18 лет. запрещено для детей)
Рейтинг MPAA: R (лицам до 17 лет обязательно присутствие взрослого)
Релиз от: селезень
Продолжительность: 01:49:41
Качество видео: WEB-DL
Перевод: Дублированный (лицензия)
Язык озвучки: русский, английский
Субтитры: Русские (Forced, Full) английские (Full, SDH)
Видео: AVC/H.264, 1920х1080, ~8000 Kbps
Аудио 1: AC3, 6 ch, 384 Kbps, русский
Аудио 2: Е-AC3, 6 ch, 384 Kbps, русский
Аудио 3: E-AC3 JOC, 6 ch, 768 Kbps, английский

MediaInfo:

General
Unique ID : 233823072406336145589669749642807765879 (0xAFE8AF88F5D8135DD8F5EB3EE5B46B77)
Complete name : D:the.nun.ii.(2023).rus.1cd.(9736384)The.Nun.II.2023.MA.WEB-DL.1080p.x264.seleZen.mkv
Format : Matroska
Format version : Version 4
File size : 7.21 GiB
Duration : 1 h 49 min
Overall bit rate : 9 407 kb/s
Frame rate : 23.976 FPS
Movie name : The.Nun.II.2023.MA.WEB-DL.1080p.x264.seleZen
Encoded date : 2023-10-03 14:00:26 UTC
Writing application : mkvmerge v79.0 ('Funeral Pyres') 64-bit
Writing library : libebml v1.4.4 + libmatroska v1.7.1
Cover : Yes
Attachments : cover.jpg / small_cover.jpg
Video
ID : 1
Format : AVC
Format/Info : Advanced Video Codec
Format profile : High@L4
Format settings : CABAC / 4 Ref Frames
Format settings, CABAC : Yes
Format settings, Reference : 4 frames
Codec ID : V_MPEG4/ISO/AVC
Duration : 1 h 49 min
Bit rate : 8 000 kb/s
Width : 1 920 pixels
Height : 1 080 pixels
Display aspect ratio : 16:9
Frame rate mode : Constant
Frame rate : 23.976 (24000/1001) FPS
Color space : YUV
Chroma subsampling : 4:2:0
Bit depth : 8 bits
Scan type : Progressive
Bits/(Pixel*Frame) : 0.161
Stream size : 6.03 GiB (84%)
Title : -=DoMiNo=-
Writing library : x264 core 164 r3094 bfc87b7
Encoding settings : cabac=1 / ref=4 / deblock=1:-1:-1 / analyse=0x3:0x133 / me=umh / subme=9 / psy=1 / psy_rd=1.00:0.15 / mixed_ref=1 / me_range=16 / chroma_me=1 / trellis=2 / 8x8dct=1 / cqm=0 / deadzone=21,11 / fast_pskip=1 / chroma_qp_offset=-3 / threads=12 / lookahead_threads=1 / sliced_threads=0 / nr=0 / decimate=1 / interlaced=0 / bluray_compat=0 / stitchable=1 / constrained_intra=0 / bframes=3 / b_pyramid=2 / b_adapt=2 / b_bias=0 / direct=3 / weightb=1 / open_gop=0 / weightp=2 / keyint=48 / keyint_min=4 / scenecut=0 / intra_refresh=0 / rc_lookahead=48 / rc=abr / mbtree=1 / bitrate=8000 / ratetol=1.0 / qcomp=0.60 / qpmin=0 / qpmax=69 / qpstep=4 / vbv_maxrate=8800 / vbv_bufsize=16000 / nal_hrd=none / filler=0 / ip_ratio=1.40 / aq=1:1.00
Language : English
Default : Yes
Forced : No
Color range : Limited
Color primaries : BT.709
Transfer characteristics : BT.709
Matrix coefficients : BT.709
Audio #1
ID : 2
Format : AC-3
Format/Info : Audio Coding 3
Commercial name : Dolby Digital
Codec ID : A_AC3
Duration : 1 h 49 min
Bit rate mode : Constant
Bit rate : 384 kb/s
Channel(s) : 6 channels
Channel layout : L R C LFE Ls Rs
Sampling rate : 48.0 kHz
Frame rate : 31.250 FPS (1536 SPF)
Compression mode : Lossy
Stream size : 301 MiB (4%)
Title : Дублированный | Лицензия [AC3]
Language : Russian
Service kind : Complete Main
Default : Yes
Forced : No
Audio #2
ID : 3
Format : E-AC-3
Format/Info : Enhanced AC-3
Commercial name : Dolby Digital Plus
Codec ID : A_EAC3
Duration : 1 h 49 min
Bit rate mode : Constant
Bit rate : 384 kb/s
Channel(s) : 6 channels
Channel layout : L R C LFE Ls Rs
Sampling rate : 48.0 kHz
Frame rate : 31.250 FPS (1536 SPF)
Compression mode : Lossy
Stream size : 301 MiB (4%)
Title : Дублированный | Лицензия
Language : Russian
Service kind : Complete Main
Default : No
Forced : No
Audio #3
ID : 4
Format : E-AC-3 JOC
Format/Info : Enhanced AC-3 with Joint Object Coding
Commercial name : Dolby Digital Plus with Dolby Atmos
Codec ID : A_EAC3
Duration : 1 h 49 min
Bit rate mode : Constant
Bit rate : 768 kb/s
Channel(s) : 6 channels
Channel layout : L R C LFE Ls Rs
Sampling rate : 48.0 kHz
Frame rate : 31.250 FPS (1536 SPF)
Compression mode : Lossy
Stream size : 602 MiB (8%)
Title : Original
Language : English
Service kind : Complete Main
Default : No
Forced : No
Complexity index : 16
Number of dynamic objects : 15
Bed channel count : 1 channel
Bed channel configuration : LFE
Text #1
ID : 5
Format : UTF-8
Codec ID : S_TEXT/UTF8
Codec ID/Info : UTF-8 Plain Text
Duration : 1 h 43 min
Bit rate : 0 b/s
Frame rate : 0.001 FPS
Count of elements : 7
Stream size : 293 Bytes (0%)
Title : Forced
Language : Russian
Default : No
Forced : No
Text #2
ID : 6
Format : UTF-8
Codec ID : S_TEXT/UTF8
Codec ID/Info : UTF-8 Plain Text
Duration : 1 h 43 min
Bit rate : 44 b/s
Frame rate : 0.119 FPS
Count of elements : 741
Stream size : 34.1 KiB (0%)
Title : Full -stirlooo
Language : Russian
Default : No
Forced : No
Text #3
ID : 7
Format : UTF-8
Codec ID : S_TEXT/UTF8
Codec ID/Info : UTF-8 Plain Text
Duration : 1 h 43 min
Bit rate : 25 b/s
Frame rate : 0.120 FPS
Count of elements : 746
Stream size : 19.2 KiB (0%)
Title : Full
Language : English
Default : No
Forced : No
Text #4
ID : 8
Format : UTF-8
Codec ID : S_TEXT/UTF8
Codec ID/Info : UTF-8 Plain Text
Duration : 1 h 44 min
Bit rate : 33 b/s
Frame rate : 0.174 FPS
Count of elements : 1090
Stream size : 26.0 KiB (0%)
Title : SDH
Language : English
Default : No
Forced : No
Menu
00:00:00.000 : en:Chapter 01
00:08:06.236 : en:Chapter 02
00:15:48.656 : en:Chapter 03
00:24:37.727 : en:Chapter 04
00:33:07.696 : en:Chapter 05
00:40:33.391 : en:Chapter 06
00:49:46.861 : en:Chapter 07
00:59:32.113 : en:Chapter 08
01:08:43.331 : en:Chapter 09
01:18:04.142 : en:Chapter 10
01:27:32.877 : en:Chapter 11
01:35:01.534 : en:Chapter 12
01:42:27.355 : en:Chapter 13
01:44:26.683 : en:Chapter 14
Скриншоты:
Все одноименные релизы в КлубеВремя раздачи: 24/7 (мультитрекер) (минимум до появления первых 3-5 скачавших)
[Профиль] [ЛС]
Показать сообщения:    
Ответить на тему

Текущее время: 23-Май 07:10

Часовой пояс: UTC ± 0



Вы не можете начинать темы
Вы не можете отвечать на сообщения
Вы не можете редактировать свои сообщения
Вы не можете удалять свои сообщения
Вы не можете голосовать в опросах
Вы не можете прикреплять файлы к сообщениям
Вы не можете скачивать файлы

[  Время выполнения: 0,042 сек  |  MySQL: 0,004 сек (9%) · 3 запр.  |  GZIP выкл  |  Память: 422,49 KB / 1,74 MB / 1,34 MB  |  Лимит: 16 11 9  ]