Безумная поездочка / Joy Ride (2023) WEB-DL [H.264/720p]

Ответить на тему
 
Автор Сообщение

admin ®

Пол: Не указан

Стаж: 4 месяца 27 дня

Сообщений: 10110

Создавать темы 30-Янв-2024 17:41

[Цитировать]

Безумная поездочка / Joy Ride (2023) WEB-DL [H.264/720p]- Производство: США, Великобритания / Lionsgate, Point Grey Pictures
Жанр: комедия
Режиссер: Аделе Лим
Актеры: Эшли Пак, Шерри Кола, Стефани Сюй, Сабрина Ву, Дэбби Фэн, Кеннет Лью, Энни Мумоло, Дэвид Денман, Belle Zhang, Lennon Yee
Описание:
Одри — американка китайского происхождения, удочерённая ещё в младенчестве — отправляется в командировку в Пекин закрыть сделку, от которой зависит её карьера. В качестве переводчика она берёт с собой Лоло, лучшую подругу из семьи китайских мигрантов, и в аэропорту узнаёт, что та ещё позвала с ними свою кузину-фанатку кей-попа, а в Китае к ним присоединяется бывшая сокурсница Кэт, актриса популярных дорам. Но китайский партнёр заявляет, что не будет вести бизнес с тем, кто не знает своего происхождения. Теперь вся шумная компания отправляется на поиски биологической матери Одри.
Возраст: 16+ (зрителям, достигшим 16 лет)
Рейтинг MPAA: R (лицам до 17 лет обязательно присутствие взрослого)
Релиз от: RA3WA & Soft-Torrent - торрент игры программы фильмы книги скачать
Продолжительность: 01:34:48
Качество видео: WEB-DL (720p)
Перевод: Дублированный, профессиональный многоголосый
Язык озвучки: Русский, английский
Субтитры: Русские (forced), английские (Full, SDH)
Видео: AVC/H.264, 1280x536, ~4800 Kbps
Аудио #1: АС3, 6 ch, 448 Kbps - Русский (Dub - HotVoice41)
Аудио #2: AC3, 6 ch, 448 Kbps - Русский (MVO - HDRezka Studio)
Аудио #3: AC3, 6 ch, 448 Kbps - Английский (Оригинал)

MediaInfo:

Общее
Уникальный идентификатор : 174840653190305791975264191968501395634 (0x838915BF1F489E0C9EE76655BA4570B2)
Полное имя : D:\NNM\Безумная поездочка\Joy.Ride.2023.WEB-DL.720p.ra3wa (1).mkv
Формат : Matroska
Версия формата : Version 4
Размер файла : 4,05 Гбайт
Продолжительность : 1 ч. 34 м.
Общий поток : 6 123 Кбит/сек
Дата кодирования : UTC 2023-09-02 21:57:28
Программа кодирования : mkvmerge v6.9.1 ('Blue Panther') 32bit built on Apr 18 2014 18:15:44
Библиотека кодирования : libebml v1.3.0 + libmatroska v1.4.1
Видео
Идентификатор : 1
Формат : AVC
Формат/Информация : Advanced Video Codec
Профиль формата : High@L4.1
Настройки формата : CABAC / 12 Ref Frames
Параметр CABAC формата : Да
Параметр RefFrames формата : 12 кадров
Идентификатор кодека : V_MPEG4/ISO/AVC
Продолжительность : 1 ч. 34 м.
Битрейт : 4 800 Кбит/сек
Ширина : 1 280 пикселей
Высота : 536 пикселей
Соотношение сторон : 2,40:1
Режим частоты кадров : Постоянный
Частота кадров : 23,976 кадра/сек
Цветовое пространство : YUV
Субдискретизация насыщенности : 4:2:0
Битовая глубина : 8 бит
Тип развёртки : Прогрессивная
Бит/(Пиксели*Кадры) : 0.292
Размер потока : 3,08 Гбайт (76%)
Библиотека кодирования : x264 core 146 r2538 121396c
Настройки программы : cabac=1 / ref=12 / deblock=1:-3:-3 / analyse=0x3:0x113 / me=umh / subme=10 / psy=1 / psy_rd=1.00:0.15 / mixed_ref=1 / me_range=32 / chroma_me=1 / trellis=2 / 8x8dct=1 / cqm=0 / deadzone=21,11 / fast_pskip=0 / chroma_qp_offset=-3 / threads=12 / lookahead_threads=2 / sliced_threads=0 / nr=0 / decimate=0 / interlaced=0 / bluray_compat=0 / constrained_intra=0 / bframes=8 / b_pyramid=2 / b_adapt=2 / b_bias=0 / direct=3 / weightb=1 / open_gop=0 / weightp=2 / keyint=240 / keyint_min=23 / scenecut=40 / intra_refresh=0 / rc_lookahead=40 / rc=2pass / mbtree=0 / bitrate=4800 / ratetol=1.0 / qcomp=0.60 / qpmin=0 / qpmax=69 / qpstep=4 / cplxblur=20.0 / qblur=0.5 / vbv_maxrate=50000 / vbv_bufsize=62500 / nal_hrd=none / filler=0 / ip_ratio=1.40 / pb_ratio=1.30 / aq=1:0.90
Default : Да
Forced : Нет
Аудио #1
Идентификатор : 2
Формат : AC-3
Формат/Информация : Audio Coding 3
Коммерческое название : Dolby Digital
Идентификатор кодека : A_AC3
Продолжительность : 1 ч. 34 м.
Вид битрейта : Постоянный
Битрейт : 448 Кбит/сек
Каналы : 6 каналов
Channel layout : L R C LFE Ls Rs
Частота : 48,0 КГц
Частота кадров : 31,250 кадров/сек (1536 SPF)
Метод сжатия : С потерями
Размер потока : 304 Мбайт (7%)
Заголовок : Dub - HotVoice41
Язык : Russian
Service kind : Complete Main
Default : Да
Forced : Нет
Аудио #2
Идентификатор : 3
Формат : AC-3
Формат/Информация : Audio Coding 3
Коммерческое название : Dolby Digital
Идентификатор кодека : A_AC3
Продолжительность : 1 ч. 34 м.
Вид битрейта : Постоянный
Битрейт : 448 Кбит/сек
Каналы : 6 каналов
Channel layout : L R C LFE Ls Rs
Частота : 48,0 КГц
Частота кадров : 31,250 кадров/сек (1536 SPF)
Метод сжатия : С потерями
Размер потока : 304 Мбайт (7%)
Заголовок : MVO - MHDRezka Studio
Язык : Russian
Service kind : Complete Main
Default : Нет
Forced : Нет
Аудио #3
Идентификатор : 4
Формат : AC-3
Формат/Информация : Audio Coding 3
Коммерческое название : Dolby Digital
Идентификатор кодека : A_AC3
Продолжительность : 1 ч. 34 м.
Вид битрейта : Постоянный
Битрейт : 448 Кбит/сек
Каналы : 6 каналов
Channel layout : L R C LFE Ls Rs
Частота : 48,0 КГц
Частота кадров : 31,250 кадров/сек (1536 SPF)
Метод сжатия : С потерями
Размер потока : 304 Мбайт (7%)
Заголовок : Оригинал
Язык : English
Service kind : Complete Main
Default : Нет
Forced : Нет
Текст #1
Идентификатор : 5
Формат : UTF-8
Идентификатор кодека : S_TEXT/UTF8
Идентификатор кодека/Информация : UTF-8 Plain Text
Заголовок : Forced
Язык : Russian
Default : Да
Forced : Нет
Текст #2
Идентификатор : 6
Формат : UTF-8
Идентификатор кодека : S_TEXT/UTF8
Идентификатор кодека/Информация : UTF-8 Plain Text
Заголовок : Full
Язык : English
Default : Нет
Forced : Нет
Текст #3
Идентификатор : 7
Формат : UTF-8
Идентификатор кодека : S_TEXT/UTF8
Идентификатор кодека/Информация : UTF-8 Plain Text
Заголовок : SDH
Язык : English
Default : Нет
Forced : Нет
Меню
00:00:00.020 : en:Chapter 01
00:02:23.204 : en:Chapter 02
00:15:00.378 : en:Chapter 03
00:28:34.734 : en:Chapter 04
00:41:50.071 : en:Chapter 05
00:56:01.589 : en:Chapter 06
01:06:22.419 : en:Chapter 07
01:18:51.710 : en:Chapter 08
01:28:05.764 : en:Chapter 09
Скриншоты: Все одноименные релизы в КлубеВремя раздачи: 24/7 (до 10-ти скачавших)
[Профиль] [ЛС]
Показать сообщения:    
Ответить на тему

Текущее время: 25-Фев 21:29

Часовой пояс: UTC ± 0



Вы не можете начинать темы
Вы не можете отвечать на сообщения
Вы не можете редактировать свои сообщения
Вы не можете удалять свои сообщения
Вы не можете голосовать в опросах
Вы не можете прикреплять файлы к сообщениям
Вы не можете скачивать файлы

[  Время выполнения: 0,040 сек  |  MySQL: 0,002 сек (6%) · 3 запр.  |  GZIP выкл  |  Память: 422,29 KB / 1,75 MB / 1,37 MB  |  Лимит: 16 16 14  ]