Друзья по отпуску 2 / Vacation Friends 2 (2023) WEB-DLRip [H.264] [DVO]

Ответить на тему
 
Автор Сообщение

admin ®

Пол: Не указан

Стаж: 7 месяца 24 дня

Сообщений: 11520

Создавать темы 30-Янв-2024 17:41

[Цитировать]

Друзья по отпуску 2 / Vacation Friends 2 (2023) WEB-DLRip - Производство: США / 20th Century Studios, Broken Road Productions
Жанр: боевик, комедия, криминал, приключения
Режиссер: Клэй Тэрвер
Продюсер: Стюарт М. Бессер, Renee Confair, Тодд Гарнер
Актеры: Лил Рел Ховери, Ивонн Орджи, Джон Сина, Мередит Хагнер, Стив Бушеми, Карлос Сантос, Ронни Чиэн, Арнольд Й. Ким, Джэми Гектор, Жан-Батист Ловенски
Описание:
Прошло некоторое время с тех пор, как супружеская чета Маркус и Эмили познакомилась в Мексике с парой антиподов — Роном и Кайлой. Несмотря на разность характеров, два семейства решают снова провести лето вместе — правда, это не просто отпуск, а ещё и командировка Маркуса.
Возраст: 16+ (зрителям, достигшим 16 лет)
Рейтинг MPAA: R (лицам до 17 лет обязательно присутствие взрослого)
Релиз от: Rip by vitolinform
Продолжительность: 01:45:39
Качество видео: WEB-DLRip
Перевод: Двуголосый любительский (Pazl Voice)
Язык озвучки: русский, английский
Субтитры: английские (SDH), немецкие, французские, испанские (SDH)
Видео: AVC/H.264, 1024x512, ~2289 Kbps
Аудио 1: AC3, 6 ch, 384 Кbps | Русский (DVO, Pazl Voice)
Аудио 2: AC3, 6 ch, 384 Кbps | Английский

MediaInfo:

raw [info]: 1024x512p 1:1 @ 24/1 fps (cfr)
x264 [info]: using SAR=1/1
x264 [info]: using cpu capabilities: MMX2 SSE2Fast SSSE3 SSE4.2 AVX FMA3 BMI2 AVX2
x264 [info]: profile High, level 4.1, 4:2:0, 8-bit
x264 [info]: frame I:1956 Avg QP:16.68 size: 74920
x264 [info]: frame P:37931 Avg QP:18.12 size: 25580
x264 [info]: frame B:112273 Avg QP:21.77 size: 6207
x264 [info]: consecutive B-frames: 3.1% 3.3% 12.9% 29.0% 43.1% 5.8% 0.8% 0.6% 0.3% 0.4% 0.6%
x264 [info]: mb I I16..4: 4.2% 72.2% 23.6%
x264 [info]: mb P I16..4: 0.8% 10.3% 1.8% P16..4: 37.1% 26.2% 16.5% 0.0% 0.0% skip: 7.3%
x264 [info]: mb B I16..4: 0.1% 0.9% 0.2% B16..8: 33.2% 10.7% 3.7% direct: 4.3% skip:46.8% L0:38.1% L1:44.2% BI:17.7%
x264 [info]: 8x8 transform intra:77.6% inter:56.9%
x264 [info]: coded y,uvDC,uvAC intra: 88.5% 86.1% 66.2% inter: 19.2% 16.9% 9.4%
x264 [info]: i16 v,h,dc,p: 24% 25% 4% 47%
x264 [info]: i8 v,h,dc,ddl,ddr,vr,hd,vl,hu: 13% 18% 7% 7% 10% 11% 11% 11% 13%
x264 [info]: i4 v,h,dc,ddl,ddr,vr,hd,vl,hu: 12% 13% 4% 8% 13% 13% 13% 11% 13%
x264 [info]: i8c dc,h,v,p: 40% 26% 18% 15%
x264 [info]: Weighted P-Frames: Y:1.3% UV:0.6%
x264 [info]: ref P L0: 56.1% 12.9% 13.5% 4.5% 3.3% 2.2% 1.9% 1.0% 0.9% 0.7% 0.7% 0.6% 0.5% 0.5% 0.5% 0.0%
x264 [info]: ref B L0: 81.1% 8.7% 3.6% 1.6% 1.2% 0.9% 0.8% 0.4% 0.5% 0.4% 0.3% 0.3% 0.2% 0.1%
x264 [info]: ref B L1: 96.7% 3.3%
x264 [info]: kb/s:2288.56
x264 [total]: encoded 152160 frames, 9.50 fps, 2288.57 kb/s
==================================================================
General
Unique ID : 302294547912343165528531595764337734744 (0xE36BCFEB5A2497CD27D067D9ABD3F458)
Complete name : D:\Druzya.po.otpusku.2.2023.HULU.WEB-DLRip.AVC.mkv
Format : Matroska
Format version : Version 4
File size : 2.26 GiB
Duration : 1 h 45 min
Overall bit rate : 3 059 kb/s
Frame rate : 24.000 FPS
Movie name : Vacation Friends 2 (2023) WEB-DLRip AVC _ vitolinform
Encoded date : 2023-09-03 02:58:04 UTC
Writing application : mkvmerge v76.0 ('Celebration') 64-bit
Writing library : libebml v1.4.4 + libmatroska v1.7.1
Attachments : poster.jpg / log.log
Video
ID : 1
Format : AVC
Format/Info : Advanced Video Codec
Format profile : High@L4.1
Format settings : CABAC / 15 Ref Frames
Format settings, CABAC : Yes
Format settings, Reference frames : 15 frames
Codec ID : V_MPEG4/ISO/AVC
Duration : 1 h 45 min
Bit rate : 2 289 kb/s
Width : 1 024 pixels
Height : 512 pixels
Display aspect ratio : 2.000
Frame rate mode : Constant
Frame rate : 24.000 FPS
Color space : YUV
Chroma subsampling : 4:2:0
Bit depth : 8 bits
Scan type : Progressive
Bits/(Pixel*Frame) : 0.182
Stream size : 1.69 GiB (75%)
Title : Друзья по отпуску 2 / Vacation Friends 2 (2023)
Writing library : x264 core 164 r3107 a8b68eb
Encoding settings : cabac=1 / ref=15 / deblock=1:-3:-3 / analyse=0x3:0x113 / me=umh / subme=10 / psy=1 / psy_rd=1.00:0.05 / mixed_ref=1 / me_range=32 / chroma_me=1 / trellis=2 / 8x8dct=1 / cqm=0 / deadzone=21,11 / fast_pskip=0 / chroma_qp_offset=-3 / threads=12 / lookahead_threads=5 / sliced_threads=0 / nr=0 / decimate=0 / interlaced=0 / bluray_compat=0 / constrained_intra=0 / bframes=10 / b_pyramid=2 / b_adapt=2 / b_bias=0 / direct=1 / weightb=1 / open_gop=0 / weightp=2 / keyint=240 / keyint_min=24 / scenecut=40 / intra_refresh=0 / rc_lookahead=40 / rc=crf / mbtree=0 / crf=18.0 / qcomp=0.60 / qpmin=0 / qpmax=69 / qpstep=4 / vbv_maxrate=50000 / vbv_bufsize=62500 / crf_max=0.0 / nal_hrd=none / filler=0 / ip_ratio=1.40 / pb_ratio=1.40 / aq=1:1.00
Language : English
Default : Yes
Forced : No
Color range : Limited
Color primaries : BT.709
Transfer characteristics : BT.709
Matrix coefficients : BT.709
Audio #1
ID : 2
Format : AC-3
Format/Info : Audio Coding 3
Commercial name : Dolby Digital
Codec ID : A_AC3
Duration : 1 h 45 min
Bit rate mode : Constant
Bit rate : 384 kb/s
Channel(s) : 6 channels
Channel layout : L R C LFE Ls Rs
Sampling rate : 48.0 kHz
Frame rate : 31.250 FPS (1536 SPF)
Compression mode : Lossy
Stream size : 290 MiB (13%)
Title : DVO | Pazl Voice
Language : Russian
Service kind : Complete Main
Default : Yes
Forced : No
Audio #2
ID : 3
Format : AC-3
Format/Info : Audio Coding 3
Commercial name : Dolby Digital
Codec ID : A_AC3
Duration : 1 h 45 min
Bit rate mode : Constant
Bit rate : 384 kb/s
Channel(s) : 6 channels
Channel layout : L R C LFE Ls Rs
Sampling rate : 48.0 kHz
Frame rate : 31.250 FPS (1536 SPF)
Compression mode : Lossy
Stream size : 290 MiB (13%)
Title : English
Language : English
Service kind : Complete Main
Default : No
Forced : No
Text #1
ID : 4
Format : UTF-8
Codec ID : S_TEXT/UTF8
Codec ID/Info : UTF-8 Plain Text
Duration : 1 h 39 min
Bit rate : 107 b/s
Frame rate : 0.356 FPS
Count of elements : 2124
Stream size : 78.7 KiB (0%)
Title : SDH
Language : English
Default : No
Forced : No
Text #2
ID : 5
Format : UTF-8
Codec ID : S_TEXT/UTF8
Codec ID/Info : UTF-8 Plain Text
Duration : 1 h 44 min
Bit rate : 84 b/s
Frame rate : 0.314 FPS
Count of elements : 1973
Stream size : 64.5 KiB (0%)
Title : Full
Language : French
Default : No
Forced : No
Text #3
ID : 6
Format : UTF-8
Codec ID : S_TEXT/UTF8
Codec ID/Info : UTF-8 Plain Text
Duration : 1 h 44 min
Bit rate : 78 b/s
Frame rate : 0.302 FPS
Count of elements : 1894
Stream size : 60.0 KiB (0%)
Title : Full
Language : German
Default : No
Forced : No
Text #4
ID : 7
Format : UTF-8
Codec ID : S_TEXT/UTF8
Codec ID/Info : UTF-8 Plain Text
Duration : 1 h 39 min
Bit rate : 95 b/s
Frame rate : 0.347 FPS
Count of elements : 2074
Stream size : 69.7 KiB (0%)
Title : SDH
Language : Spanish
Default : No
Forced : No
Menu
00:00:00.000 : en:Chapter 01
00:27:56.090 : en:Chapter 02
00:51:05.210 : en:Chapter 03
01:16:22.030 : en:Chapter 04
01:40:01.180 : en:Credits
Скриншоты:
Все одноименные релизы в КлубеВремя раздачи: как минимум до появления первых 3-5 скачавших (минимум до появления первых 3-5 скачавших)
[Профиль] [ЛС]
Показать сообщения:    
Ответить на тему

Текущее время: 23-Май 06:16

Часовой пояс: UTC ± 0



Вы не можете начинать темы
Вы не можете отвечать на сообщения
Вы не можете редактировать свои сообщения
Вы не можете удалять свои сообщения
Вы не можете голосовать в опросах
Вы не можете прикреплять файлы к сообщениям
Вы не можете скачивать файлы

[  Время выполнения: 0,040 сек  |  MySQL: 0,002 сек (6%) · 3 запр.  |  GZIP выкл  |  Память: 422,29 KB / 1,75 MB / 1,37 MB  |  Лимит: 7 8 11  ]