Друзья по отпуску 2 / Vacation Friends 2 (2023) WEB-DL [H.264/1080p] [DVO]

Ответить на тему
 
Автор Сообщение

admin ®

Пол: Не указан

Стаж: 7 месяца 24 дня

Сообщений: 11520

Создавать темы 30-Янв-2024 17:40

[Цитировать]

Друзья по отпуску 2 / Vacation Friends 2 (2023) WEB-DL [H.264/1080p] - Производство: США / 20th Century Studios, Broken Road Productions
Жанр: боевик, комедия, криминал, приключения
Режиссер: Клэй Тэрвер
Актеры: Лил Рел Ховери, Ивонн Орджи, Джон Сина, Мередит Хагнер, Стив Бушеми, Карлос Сантос, Ронни Чиэн, Арнольд Й. Ким, Джэми Гектор, Жан-Батист Ловенски
Описание:
Прошло некоторое время с тех пор, как супружеская чета Маркус и Эмили познакомилась в Мексике с парой антиподов — Роном и Кайлой. Несмотря на разность характеров, два семейства решают снова провести лето вместе — правда, это не просто отпуск, а ещё и командировка Маркуса.
Возраст: 16+ (зрителям, достигшим 16 лет)
Рейтинг MPAA: R (лицам до 17 лет обязательно присутствие взрослого)
Продолжительность: 01:45:40
Качество видео: WEB-DL (1080p)
Перевод: Любительский двухголосый (Pazl Voice)
Язык озвучки: Русский, английский
Субтитры: Английские
Видео: AVC/H.264, 1920x1080, ~5385 Kbps
Аудио 1: AC3, 6 ch, 384 Кbps | Русский
Аудио 2: AC3, 6 ch, 448 Кbps | Английский

MediaInfo:

Общее
Уникальный идентификатор : 228296565696690673793239297078559040298 (0xABC051B796E51DE8A8D6F0FE8CB0E32A)
Полное имя : D:\NNM\Друзья по отпуску 2\Vacation.Friends.2.2023.1080p_от New-Team_JNS82.mkv
Формат : Matroska
Версия формата : Version 4
Размер файла : 4,68 Гбайт
Продолжительность : 1 ч. 45 м.
Общий поток : 6 344 Кбит/сек
Дата кодирования : UTC 2023-09-03 05:31:41
Программа кодирования : mkvmerge v6.9.1 ('Blue Panther') 32bit built on Apr 18 2014 18:15:44
Библиотека кодирования : libebml v1.3.0 + libmatroska v1.4.1
Видео
Идентификатор : 1
Формат : AVC
Формат/Информация : Advanced Video Codec
Профиль формата : High@L4
Настройки формата : CABAC / 4 Ref Frames
Параметр CABAC формата : Да
Параметр RefFrames формата : 4 кадра
Идентификатор кодека : V_MPEG4/ISO/AVC
Продолжительность : 1 ч. 45 м.
Битрейт : 5 385 Кбит/сек
Ширина : 1 920 пикселей
Высота : 1 080 пикселей
Соотношение сторон : 16:9
Режим частоты кадров : Постоянный
Частота кадров : 24,000 кадра/сек
Цветовое пространство : YUV
Субдискретизация насыщенности : 4:2:0
Битовая глубина : 8 бит
Тип развёртки : Прогрессивная
Бит/(Пиксели*Кадры) : 0.108
Размер потока : 3,97 Гбайт (85%)
Default : Да
Forced : Нет
Аудио #1
Идентификатор : 2
Формат : AC-3
Формат/Информация : Audio Coding 3
Коммерческое название : Dolby Digital
Идентификатор кодека : A_AC3
Продолжительность : 1 ч. 45 м.
Вид битрейта : Постоянный
Битрейт : 384 Кбит/сек
Каналы : 6 каналов
Channel layout : L R C LFE Ls Rs
Частота : 48,0 КГц
Частота кадров : 31,250 кадров/сек (1536 SPF)
Метод сжатия : С потерями
Размер потока : 290 Мбайт (6%)
Заголовок : DVO - Pazl Voice
Язык : Russian
Service kind : Complete Main
Default : Да
Forced : Нет
Аудио #2
Идентификатор : 3
Формат : AC-3
Формат/Информация : Audio Coding 3
Коммерческое название : Dolby Digital
Идентификатор кодека : A_AC3
Продолжительность : 1 ч. 45 м.
Вид битрейта : Постоянный
Битрейт : 448 Кбит/сек
Каналы : 6 каналов
Channel layout : L R C LFE Ls Rs
Частота : 48,0 КГц
Частота кадров : 31,250 кадров/сек (1536 SPF)
Метод сжатия : С потерями
Размер потока : 339 Мбайт (7%)
Язык : English
Service kind : Complete Main
Default : Нет
Forced : Нет
Текст
Идентификатор : 4
Формат : UTF-8
Идентификатор кодека : S_TEXT/UTF8
Идентификатор кодека/Информация : UTF-8 Plain Text
Заголовок : Full
Язык : English
Default : Нет
Forced : Нет
Скриншоты:
Все одноименные релизы в КлубеВремя раздачи: 24/7 (до 10-ти скачавших)
[Профиль] [ЛС]
Показать сообщения:    
Ответить на тему

Текущее время: 23-Май 05:11

Часовой пояс: UTC ± 0



Вы не можете начинать темы
Вы не можете отвечать на сообщения
Вы не можете редактировать свои сообщения
Вы не можете удалять свои сообщения
Вы не можете голосовать в опросах
Вы не можете прикреплять файлы к сообщениям
Вы не можете скачивать файлы

[  Время выполнения: 0,032 сек  |  MySQL: 0,004 сек (12%) · 5 запр.  |  GZIP выкл  |  Память: 422,49 KB / 1,72 MB / 1,32 MB  |  Лимит: 13 15 19  ]