Сайен / Sayen (2023) WEB-DLRip [DVO] [AD]

Ответить на тему
 
Автор Сообщение

admin ®

Пол: Не указан

Стаж: 5 месяца

Сообщений: 10110

Создавать темы 30-Янв-2024 17:40

[Цитировать]

Сайен / Sayen (2023) WEB-DLRip - Производство: Чили / Fabula
Жанр: боевик, триллер
Режиссер: Александр Уитт
Актеры: Rallen Montenegro, Энрике Арсе, Roberto García Ruiz, Camilo Arancibia, Лорето Аравена, Angela Brandao, Niav Campbell, Roberto Cayuqueo, Альваро Эспиноза, David Gaete и др.
Описание:
Сайен выслеживает людей, убивших ее бабушку, и узнает о заговоре корпорации, который угрожает исконным землям ее народа. Используя свою подготовку и знание природы, она способна изменить ситуацию в свою пользу…
Фильм посвящен геноциду индейских племен, который продолжается в разных странах Америки уже 500 лет.
Релиз от: ViruseProject
Продолжительность: 01:36:13
Качество видео: WEB-DLRip
Перевод: Профессиональный двухголосый (ViruseProject)
Язык озвучки: Русский, испанский
Субтитры: Русские (отдельный файл)
Реклама: Присутствуют видео вставки рекламы
Видео: XviD, 704x352 (2.000), ~1490 Kbps
Аудио 1: АС3, 2 ch, 192 Kbps - русский
Аудио 2: АС3, 2 ch, 192 Kbps - испанский

MediaInfo:

General
Complete name : Sayen.2023.WEB-DLRip.ViruseProject.avi
Format : AVI
Format/Info : Audio Video Interleave
File size : 1.27 GiB
Duration : 1 h 36 min
Overall bit rate : 1 888 kb/s
Writing application : VirtualDubMod 1.5.10.2 (build 2540/release)
Writing library : VirtualDubMod build 2540/release
Video
ID : 0
Format : MPEG-4 Visual
Format profile : Advanced Simple@L5
Format settings : BVOP3
Format settings, BVOP : 3
Format settings, QPel : No
Format settings, GMC : No warppoints
Format settings, Matrix : Default (H.263)
Codec ID : XVID
Codec ID/Hint : XviD
Duration : 1 h 36 min
Bit rate : 1 490 kb/s
Width : 704 pixels
Height : 352 pixels
Display aspect ratio : 2.000
Frame rate : 23.976 (24000/1001) FPS
Color space : YUV
Chroma subsampling : 4:2:0
Bit depth : 8 bits
Scan type : Progressive
Compression mode : Lossy
Bits/(Pixel*Frame) : 0.251
Stream size : 1.00 GiB (79%)
Writing library : XviD 69
Audio #1
ID : 1
Format : AC-3
Format/Info : Audio Coding 3
Commercial name : Dolby Digital
Codec ID : 2000
Duration : 1 h 36 min
Bit rate mode : Constant
Bit rate : 192 kb/s
Channel(s) : 2 channels
Channel layout : L R
Sampling rate : 48.0 kHz
Frame rate : 31.250 FPS (1536 SPF)
Compression mode : Lossy
Stream size : 132 MiB (10%)
Alignment : Split across interleaves
Interleave, duration : 42 ms (1.00 video frame)
Interleave, preload duration : 500 ms
Service kind : Complete Main
Audio #2
ID : 2
Format : AC-3
Format/Info : Audio Coding 3
Commercial name : Dolby Digital
Codec ID : 2000
Duration : 1 h 36 min
Bit rate mode : Constant
Bit rate : 192 kb/s
Channel(s) : 2 channels
Channel layout : L R
Sampling rate : 48.0 kHz
Frame rate : 31.250 FPS (1536 SPF)
Compression mode : Lossy
Stream size : 132 MiB (10%)
Alignment : Split across interleaves
Interleave, duration : 42 ms (1.00 video frame)
Interleave, preload duration : 500 ms
Service kind : Complete Main
Скриншоты:
Все одноименные релизы в КлубеВремя раздачи: мультитрекерная раздача
[Профиль] [ЛС]
Показать сообщения:    
Ответить на тему

Текущее время: 28-Фев 23:22

Часовой пояс: UTC ± 0



Вы не можете начинать темы
Вы не можете отвечать на сообщения
Вы не можете редактировать свои сообщения
Вы не можете удалять свои сообщения
Вы не можете голосовать в опросах
Вы не можете прикреплять файлы к сообщениям
Вы не можете скачивать файлы

[  Время выполнения: 0,033 сек  |  MySQL: 0,002 сек (7%) · 3 запр.  |  GZIP выкл  |  Память: 422,29 KB / 1,74 MB / 1,34 MB  |  Лимит: 8 10 10  ]