Бугимен / The Boogeyman (2023) WEB-DLRip [H.264] [MVO]

Ответить на тему
 
Автор Сообщение

admin ®

Пол: Не указан

Стаж: 5 месяца

Сообщений: 10110

Создавать темы 30-Янв-2024 17:40

[Цитировать]

Бугимен / The Boogeyman (2023) WEB-DLRip - Производство: США, Канада / 20th Century Studios, 21 Laps Entertainment, NeoReel
Жанр: ужасы
Режиссер: Роб Сэвидж
Продюсер: Дэн Коэн, Адам Колбеннер, Дэн Ливайн
Актеры: Вивьен Лира Блэр, Софи Тэтчер, Крис Мессина, Давид Дастмалчян, Лиза Гей Хэмилтон, Марин Айрлэнд, Мэдисон Ху, Мэдди Николс, Лиэнн Росс, Rio Sarah Machadio
Описание:
Старшеклассница Сэди Харпер и её младшая сестра Сойер переживают из-за недавней смерти матери и не получают особой поддержки от отца — терапевта, который пытается справиться с собственной болью. Когда отчаявшийся пациент неожиданно появляется в их доме в поисках помощи, он оставляет после себя ужасающую сверхъестественную сущность, которая охотится на семьи и питается страхами своих жертв.
Рейтинг MPAA: PG-13 (детям до 13 лет просмотр нежелателен)
Релиз от: Rip by vitolinform
Продолжительность: 01:38:42
Качество видео: WEB-DLRip
Перевод: Многоголосый профессиональный (TVShows, Jaskier)
Язык озвучки: русский, английский
Субтитры: русские, английские, испанские, французские
Видео: AVC/H.264, 1024x436, ~1822 Kbps
Аудио 1: AC3, 6 ch, 384 Кbps | Русский (MVO, TVShows)
Аудио 2: AC3, 6 ch, 384 Кbps | Русский (MVO, Jaskier)
Аудио 3: AC3, 6 ch, 448 Кbps | Английский

MediaInfo:

raw [info]: 1024x436p 1:1 @ 24000/1001 fps (cfr)
x264 [info]: using SAR=1/1
x264 [info]: using cpu capabilities: MMX2 SSE2Fast SSSE3 SSE4.2 AVX FMA3 BMI2 AVX2
x264 [info]: profile High, level 4.1, 4:2:0, 8-bit
x264 [info]: frame I:1088 Avg QP:13.57 size: 46205
x264 [info]: frame P:30664 Avg QP:14.57 size: 22633
x264 [info]: frame B:110491 Avg QP:17.34 size: 5490
x264 [info]: consecutive B-frames: 1.9% 2.7% 5.2% 25.9% 16.9% 36.0% 6.1% 3.5% 0.9% 0.7% 0.3%
x264 [info]: mb I I16..4: 5.0% 85.4% 9.5%
x264 [info]: mb P I16..4: 0.8% 15.1% 1.2% P16..4: 34.0% 30.6% 17.7% 0.0% 0.0% skip: 0.7%
x264 [info]: mb B I16..4: 0.1% 0.6% 0.1% B16..8: 40.0% 15.6% 3.3% direct: 4.7% skip:35.7% L0:49.5% L1:43.5% BI: 6.9%
x264 [info]: 8x8 transform intra:87.4% inter:57.4%
x264 [info]: coded y,uvDC,uvAC intra: 90.9% 87.1% 76.3% inter: 22.5% 21.1% 10.7%
x264 [info]: i16 v,h,dc,p: 22% 14% 20% 44%
x264 [info]: i8 v,h,dc,ddl,ddr,vr,hd,vl,hu: 14% 8% 14% 9% 11% 11% 10% 11% 12%
x264 [info]: i4 v,h,dc,ddl,ddr,vr,hd,vl,hu: 35% 7% 4% 8% 10% 11% 9% 8% 8%
x264 [info]: i8c dc,h,v,p: 49% 21% 19% 11%
x264 [info]: Weighted P-Frames: Y:7.8% UV:4.9%
x264 [info]: ref P L0: 41.3% 4.9% 18.2% 7.3% 6.6% 4.4% 4.4% 2.2% 2.2% 1.7% 1.7% 1.3% 1.4% 1.1% 1.2% 0.1%
x264 [info]: ref B L0: 60.8% 14.6% 7.7% 4.1% 2.9% 2.5% 1.9% 1.3% 1.0% 1.0% 0.8% 0.7% 0.5% 0.2%
x264 [info]: ref B L1: 93.0% 7.0%
x264 [info]: kb/s:1821.59
x264 [total]: encoded 142243 frames, 8.01 fps, 1821.59 kb/s
======================================================================
General
Unique ID : 196176150894958531807046971828890931151 (0x939626FFA4F2FC950EB4BEB6C79A8FCF)
Complete name : D:\Bugimen.2023.AMZN.WEB-DLRip.AVC.mkv
Format : Matroska
Format version : Version 4
File size : 2.10 GiB
Duration : 1 h 38 min
Overall bit rate : 3 038 kb/s
Frame rate : 23.976 FPS
Movie name : The Boogeyman (2023) WEB-DLRip AVC _ vitolinform
Encoded date : 2023-09-01 07:28:50 UTC
Writing application : mkvmerge v76.0 ('Celebration') 64-bit
Writing library : libebml v1.4.4 + libmatroska v1.7.1
Attachments : poster.jpg / log.log
Video
ID : 1
Format : AVC
Format/Info : Advanced Video Codec
Format profile : High@L4.1
Format settings : CABAC / 15 Ref Frames
Format settings, CABAC : Yes
Format settings, Reference frames : 15 frames
Codec ID : V_MPEG4/ISO/AVC
Duration : 1 h 38 min
Bit rate : 1 822 kb/s
Width : 1 024 pixels
Height : 436 pixels
Display aspect ratio : 2.35:1
Frame rate mode : Constant
Frame rate : 23.976 (24000/1001) FPS
Color space : YUV
Chroma subsampling : 4:2:0
Bit depth : 8 bits
Scan type : Progressive
Bits/(Pixel*Frame) : 0.170
Stream size : 1.26 GiB (60%)
Title : Бугимен / The Boogeyman (2023)
Writing library : x264 core 164 r3107 a8b68eb
Encoding settings : cabac=1 / ref=15 / deblock=1:-3:-3 / analyse=0x3:0x113 / me=umh / subme=10 / psy=1 / psy_rd=1.00:0.05 / mixed_ref=1 / me_range=32 / chroma_me=1 / trellis=2 / 8x8dct=1 / cqm=0 / deadzone=21,11 / fast_pskip=0 / chroma_qp_offset=-3 / threads=12 / lookahead_threads=5 / sliced_threads=0 / nr=0 / decimate=0 / interlaced=0 / bluray_compat=0 / constrained_intra=0 / bframes=10 / b_pyramid=2 / b_adapt=2 / b_bias=0 / direct=1 / weightb=1 / open_gop=0 / weightp=2 / keyint=240 / keyint_min=24 / scenecut=40 / intra_refresh=0 / rc_lookahead=40 / rc=crf / mbtree=0 / crf=18.0 / qcomp=0.60 / qpmin=0 / qpmax=69 / qpstep=4 / vbv_maxrate=50000 / vbv_bufsize=62500 / crf_max=0.0 / nal_hrd=none / filler=0 / ip_ratio=1.40 / pb_ratio=1.40 / aq=1:1.00
Language : English
Default : Yes
Forced : No
Color range : Limited
Color primaries : BT.709
Transfer characteristics : BT.709
Matrix coefficients : BT.709
Audio #1
ID : 2
Format : AC-3
Format/Info : Audio Coding 3
Commercial name : Dolby Digital
Codec ID : A_AC3
Duration : 1 h 38 min
Bit rate mode : Constant
Bit rate : 384 kb/s
Channel(s) : 6 channels
Channel layout : L R C LFE Ls Rs
Sampling rate : 48.0 kHz
Frame rate : 31.250 FPS (1536 SPF)
Compression mode : Lossy
Stream size : 271 MiB (13%)
Title : MVO | TVShows
Language : Russian
Service kind : Complete Main
Default : Yes
Forced : No
Audio #2
ID : 3
Format : AC-3
Format/Info : Audio Coding 3
Commercial name : Dolby Digital
Codec ID : A_AC3
Duration : 1 h 38 min
Bit rate mode : Constant
Bit rate : 384 kb/s
Channel(s) : 6 channels
Channel layout : L R C LFE Ls Rs
Sampling rate : 48.0 kHz
Frame rate : 31.250 FPS (1536 SPF)
Compression mode : Lossy
Stream size : 271 MiB (13%)
Title : MVO | Jaskier
Language : Russian
Service kind : Complete Main
Default : No
Forced : No
Audio #3
ID : 4
Format : AC-3
Format/Info : Audio Coding 3
Commercial name : Dolby Digital
Codec ID : A_AC3
Duration : 1 h 38 min
Bit rate mode : Constant
Bit rate : 448 kb/s
Channel(s) : 6 channels
Channel layout : L R C LFE Ls Rs
Sampling rate : 48.0 kHz
Frame rate : 31.250 FPS (1536 SPF)
Compression mode : Lossy
Stream size : 316 MiB (15%)
Title : English
Language : English
Service kind : Complete Main
Default : No
Forced : No
Text #1
ID : 5
Format : UTF-8
Codec ID : S_TEXT/UTF8
Codec ID/Info : UTF-8 Plain Text
Duration : 1 h 30 min
Bit rate : 65 b/s
Frame rate : 0.177 FPS
Count of elements : 967
Stream size : 43.6 KiB (0%)
Title : Full | stirlooo
Language : Russian
Default : No
Forced : No
Text #2
ID : 6
Format : UTF-8
Codec ID : S_TEXT/UTF8
Codec ID/Info : UTF-8 Plain Text
Duration : 1 h 30 min
Bit rate : 38 b/s
Frame rate : 0.178 FPS
Count of elements : 968
Stream size : 25.2 KiB (0%)
Title : Full
Language : English
Default : No
Forced : No
Text #3
ID : 7
Format : UTF-8
Codec ID : S_TEXT/UTF8
Codec ID/Info : UTF-8 Plain Text
Duration : 1 h 33 min
Bit rate : 31 b/s
Frame rate : 0.134 FPS
Count of elements : 750
Stream size : 21.9 KiB (0%)
Title : Full
Language : Spanish
Default : No
Forced : No
Text #4
ID : 8
Format : UTF-8
Codec ID : S_TEXT/UTF8
Codec ID/Info : UTF-8 Plain Text
Duration : 1 h 38 min
Bit rate : 37 b/s
Frame rate : 0.171 FPS
Count of elements : 1011
Stream size : 27.0 KiB (0%)
Title : Full
Language : French
Default : No
Forced : No
Menu
00:00:00.000 : en:Chapter 01
00:02:46.624 : en:Chapter 02
00:07:12.849 : en:Chapter 03
00:09:47.712 : en:Chapter 04
00:15:55.080 : en:Chapter 05
00:19:18.074 : en:Chapter 06
00:21:19.571 : en:Chapter 07
00:26:15.658 : en:Chapter 08
00:31:27.887 : en:Chapter 09
00:35:56.322 : en:Chapter 10
00:42:15.493 : en:Chapter 11
00:46:47.766 : en:Chapter 12
00:52:05.083 : en:Chapter 13
00:58:44.566 : en:Chapter 14
01:06:35.870 : en:Chapter 15
01:12:45.865 : en:Chapter 16
01:17:55.008 : en:Chapter 17
01:25:36.678 : en:Chapter 18
01:29:09.349 : en:Chapter 19
01:32:11.698 : en:Chapter 20
Скриншоты:
Все одноименные релизы в КлубеВремя раздачи: как минимум до появления первых 3-5 скачавших, 24/7 (мультитрекерная раздача)
[Профиль] [ЛС]
Показать сообщения:    
Ответить на тему

Текущее время: 28-Фев 23:55

Часовой пояс: UTC ± 0



Вы не можете начинать темы
Вы не можете отвечать на сообщения
Вы не можете редактировать свои сообщения
Вы не можете удалять свои сообщения
Вы не можете голосовать в опросах
Вы не можете прикреплять файлы к сообщениям
Вы не можете скачивать файлы

[  Время выполнения: 0,040 сек  |  MySQL: 0,003 сек (7%) · 3 запр.  |  GZIP выкл  |  Память: 422,29 KB / 1,76 MB / 1,38 MB  |  Лимит: 10 10 9  ]