Сыновья лета / Sons of Summer (2023) WEB-DLRip [H.264/1080p] [MVO] [AD]

Ответить на тему
 
Автор Сообщение

admin ®

Пол: Не указан

Стаж: 7 месяца 26 дня

Сообщений: 11520

Создавать темы 30-Янв-2024 17:40

[Цитировать]

Сыновья лета / Sons of Summer (2023) WEB-DLRip [H.264/1080p]- Производство: Австралия / Grindstone Entertainment Group, InterTropic Films, Maddfilms
Жанр: боевик
Режиссер: Клив Флёри
Актеры: Темуэра Моррисон, Изабель Лукас, Джо Дэвидсон, Кристофер Пэйт, Pacha Luque-Light, Филлип Авалон, Стив Нейшн, Алекс Флери, Jonathan Weir, Микаэла Брэдшоу
Описание:
Чтобы отметить годовщину смерти отца, Шон берет своих друзей в путешествие на любимый пляж своего покойного отца-серфера. Но друг Шона, торгующий наркотиками, вынуждает его оказать последнюю услугу – украсть партию героина у местного мафиози. Криминальный авторитет в ответ похищает девушку Шона. Сможет ли Шон вовремя вернуться в город, чтобы спасти девушку и свою жизнь?
Рейтинг MPAA: R (лицам до 17 лет обязательно присутствие взрослого)
Продолжительность: 01:25:37
Качество видео: WEB-DLRip
Перевод: Многоголосый профессиональный (Синема УС)
Язык озвучки: Русский
Субтитры: Отсутствуют
Реклама: Присутствует баннер.
Видео: AVC/H.264, 1920x800, ~6152 Kbps
Аудио: AC3, 2 ch, 384 Kbps

MediaInfo:

Общее
Полное имя : D:\NNM\Сыновья лета\Sons.of.Summer.2023.WEB-DLRip.1080p-LQ.mkv
Формат : Matroska
Версия формата : Version 2
Размер файла : 3,99 Гбайт
Продолжительность : 1 ч. 25 м.
Режим общего битрейта : Постоянный
Общий поток : 6 669 Кбит/сек
Программа кодирования : libmatroska 1.4.1
Библиотека кодирования : SolveigMM Matroska Muxer Version 1.0.1904.23
Видео
Идентификатор : 1
Формат : AVC
Формат/Информация : Advanced Video Codec
Профиль формата : High@L4.1
Настройки формата : CABAC / 4 Ref Frames
Параметр CABAC формата : Да
Параметр RefFrames формата : 4 кадра
Идентификатор кодека : V_MPEG4/ISO/AVC
Продолжительность : 1 ч. 25 м.
Вид битрейта : Постоянный
Битрейт : 6 152 Кбит/сек
Номинальный битрейт : 7 000 Кбит/сек
Ширина : 1 920 пикселей
Высота : 800 пикселей
Соотношение сторон : 2,40:1
Режим частоты кадров : Постоянный
Частота кадров : 23,976 (24000/1001) кадра/сек
Стандарт вещания : Component
Цветовое пространство : YUV
Субдискретизация насыщенности : 4:2:0
Битовая глубина : 8 бит
Тип развёртки : Прогрессивная
Бит/(Пиксели*Кадры) : 0.167
Размер потока : 3,68 Гбайт (92%)
Библиотека кодирования : x264 core 155
Default : Нет
Forced : Нет
Цветовой диапазон : Limited
Основные цвета : BT.709
Характеристики трансфера : BT.709
Коэффициенты матрицы : BT.709
Аудио
Идентификатор : 2
Формат : AC-3
Формат/Информация : Audio Coding 3
Коммерческое название : Dolby Digital
Идентификатор кодека : A_AC3
Продолжительность : 1 ч. 25 м.
Вид битрейта : Постоянный
Битрейт : 384 Кбит/сек
Каналы : 2 канала
Channel layout : L R
Частота : 48,0 КГц
Частота кадров : 31,250 кадров/сек (1536 SPF)
Метод сжатия : С потерями
Размер потока : 235 Мбайт (6%)
Язык : Russian
Service kind : Complete Main
Default : Нет
Forced : Нет
Скриншоты: Все одноименные релизы в КлубеВремя раздачи: 24/7 (до 10-ти скачавших)
[Профиль] [ЛС]
Показать сообщения:    
Ответить на тему

Текущее время: 24-Май 12:55

Часовой пояс: UTC ± 0



Вы не можете начинать темы
Вы не можете отвечать на сообщения
Вы не можете редактировать свои сообщения
Вы не можете удалять свои сообщения
Вы не можете голосовать в опросах
Вы не можете прикреплять файлы к сообщениям
Вы не можете скачивать файлы

[  Время выполнения: 0,041 сек  |  MySQL: 0,003 сек (7%) · 3 запр.  |  GZIP выкл  |  Память: 422,29 KB / 1,74 MB / 1,34 MB  |  Лимит: 7 7 7  ]