Вызов (2023) WEBRip

Ответить на тему
 
Автор Сообщение

admin ®

Пол: Не указан

Стаж: 4 месяца 27 дня

Сообщений: 10110

Создавать темы 30-Янв-2024 17:40

[Цитировать]

Вызов (2023) WEBRip - Производство: Россия / Роскосмос, Первый канал, START
Жанр: драма, семейный, фильмы о космосе
Режиссер: Клим Шипенко
Актеры: Юлия Пересильд, Милош Бикович, Владимир Машков, Олег Новицкий, Антон Шкаплеров, Пётр Дубров, Елена Валюшкина, Варвара Володина, Андрей Щепочкин, Александр Балуев
Описание:
Евгения Беляева — первоклассный торакальный хирург. Работа занимает главное место в ее жизни, на отношения и воспитание дочери-подростка у героини совсем не остается времени. Через месяц Жене предстоит отправиться в космос, где в условиях невесомости она должна будет сделать сложную операцию космонавту, чтобы спасти ему жизнь. Удастся ли ей справиться с испытаниями? Сможет ли она преодолеть неуверенность и страхи? «Вызов» — драма Клима Шипенко с Юлией Пересильд, съемки которой прошли на борту Международной космической станции в 400 км от Земли.
Возраст: 12+ (зрителям, достигшим 12 лет)
Релиз от: MrMittens
Продолжительность: 02:43:35
Качество видео: WEBRip
Перевод: Не требуется (Русский)
Субтитры: русские (SDH) отдельно
Видео: Xvid, 720x384, ~1454 Kbps
Аудио: AC3, 6 ch, 384 Kbps

MediaInfo:

Общее
Полное имя : H:\NEW SONIC\Vysov.2023.WEB-DLRip.MrMittens\Vysov.2023.WEB-DLRip.MrMittens.avi
Формат : AVI
Формат/Информация : Audio Video Interleave
Размер файла : 2,11 Гбайт
Продолжительность : 2 ч. 43 м.
Общий поток : 1 848 Кбит/сек
Программа кодирования : Lavf59.16.100
Видео
Идентификатор : 0
Формат : MPEG-4 Visual
Профиль формата : Advanced Simple@L5
Настройки формата : BVOP1
Параметр BVOP формата : 1
Параметр QPel формата : Нет
Параметр GMC формата : Без точки перехода
Параметр матрицы формата : Default (H.263)
Идентификатор кодека : XVID
Идентификатор кодека/Подсказка : XviD
Продолжительность : 2 ч. 43 м.
Битрейт : 1 454 Кбит/сек
Ширина : 720 пикселей
Высота : 384 пикселя
Соотношение сторон : 1,913
Соотношение сторон в оригинале : 1,897
Частота кадров : 24,000 кадра/сек
Цветовое пространство : YUV
Субдискретизация насыщенности : 4:2:0
Битовая глубина : 8 бит
Тип развёртки : Прогрессивная
Метод сжатия : С потерями
Бит/(Пиксели*Кадры) : 0.219
Размер потока : 1,66 Гбайт (79%)
Библиотека кодирования : XviD 69
Аудио
Идентификатор : 1
Формат : AC-3
Формат/Информация : Audio Coding 3
Коммерческое название : Dolby Digital
Идентификатор кодека : 2000
Продолжительность : 2 ч. 43 м.
Вид битрейта : Постоянный
Битрейт : 384 Кбит/сек
Каналы : 6 каналов
Channel layout : L R C LFE Ls Rs
Частота : 48,0 КГц
Частота кадров : 31,250 кадров/сек (1536 SPF)
Битовая глубина : 16 бит
Метод сжатия : С потерями
Размер потока : 449 Мбайт (21%)
Выравнивание : Соединение по промежуткам
Продолжительность промежутка : 32 мс. (0,77 видеокадр)
Service kind : Complete Main
Скриншоты:
Все одноименные релизы в КлубеВремя раздачи: 24/7 - круглосуточно (минимум до появления первых 3-5 скачавших)
[Профиль] [ЛС]
Показать сообщения:    
Ответить на тему

Текущее время: 25-Фев 21:43

Часовой пояс: UTC ± 0



Вы не можете начинать темы
Вы не можете отвечать на сообщения
Вы не можете редактировать свои сообщения
Вы не можете удалять свои сообщения
Вы не можете голосовать в опросах
Вы не можете прикреплять файлы к сообщениям
Вы не можете скачивать файлы

[  Время выполнения: 0,030 сек  |  MySQL: 0,003 сек (9%) · 3 запр.  |  GZIP выкл  |  Память: 422,29 KB / 1,72 MB / 1,32 MB  |  Лимит: 15 14 14  ]