Рождение легенд / Spinning Gold (2023) BDRip [H.264/1080p]

Ответить на тему
 
Автор Сообщение

admin ®

Пол: Не указан

Стаж: 4 месяца 27 дня

Сообщений: 10110

Создавать темы 30-Янв-2024 17:40

[Цитировать]

Рождение легенд / Spinning Gold (2023) BDRip [H.264/1080p]- Производство: США / Hero Entertainment Group, The Boardwalk Entertainment Group
Жанр: Биография, музыка, драма
Режиссер: Тимоти Скотт Богарт
Актеры: Джереми Джордан, Уиз Халифа, Джейсон Айзекс, Джейсон Дэруло, Мишель Монахэн, Себастьян Манискалко, Линдси Фонсека, Кэйли Кауэн, Пейтон Лист, Дэн Фоглер
Описание:
Что делать, если ты начинающий продюсер, и все, что у тебя есть — большие долги и несколько неизвестных музыкантов? Открыть свой лейбл! Бросить вызов условностям, рискнуть всем и перевернуть мир шоу-бизнеса с ног на голову. История рождения легендарной звукозаписывающей компании, которая навсегда изменила мир музыки.
Возраст: 18+ (зрителям, достигшим 18 лет. запрещено для детей)
Рейтинг MPAA: R (лицам до 17 лет обязательно присутствие взрослого)
Продолжительность: 02:17:39
Качество видео: BDRip (1080p)
Перевод: Дублированный (Баритон)
Язык озвучки: Русский, английский
Субтитры: Русские (Forced, full), английские
Видео: AVC/H.264, 1920х804, ~14.7 Mbps
Аудио 1: AC3, 6 ch, 384 Кbps | Русский
Аудио 3: AC3, 6 ch, 640 Кbps | Английский

MediaInfo:

Общее
Уникальный идентификатор : 91633061948190930645994935785037307710 (0x44EFE2C3255E1B01BB13A56E97AD1F3E)
Полное имя : D:\NNM\Рождение легенд\Spinning.Gold.2023.MVO.BDRip.1080p.x264.seleZen.mkv
Формат : Matroska
Версия формата : Version 4
Размер файла : 15,1 Гбайт
Продолжительность : 2 ч. 17 м.
Общий поток : 15,7 Мбит/сек
Название фильма : Spinning.Gold.2023.D.BDRip.1080p.x264.seleZen
Дата кодирования : UTC 2023-09-01 03:15:06
Программа кодирования : mkvmerge v63.0.0 ('Everything') 64-bit
Библиотека кодирования : libebml v1.4.2 + libmatroska v1.6.4
Обложка : Yes
Attachments : cover.jpg / small_cover.jpg
Видео
Идентификатор : 1
Формат : AVC
Формат/Информация : Advanced Video Codec
Профиль формата : High@L4.1
Настройки формата : CABAC / 4 Ref Frames
Параметр CABAC формата : Да
Параметр RefFrames формата : 4 кадра
Идентификатор кодека : V_MPEG4/ISO/AVC
Продолжительность : 2 ч. 17 м.
Битрейт : 14,7 Мбит/сек
Ширина : 1 920 пикселей
Высота : 804 пикселя
Соотношение сторон : 2,40:1
Режим частоты кадров : Постоянный
Частота кадров : 23,976 (24000/1001) кадра/сек
Цветовое пространство : YUV
Субдискретизация насыщенности : 4:2:0
Битовая глубина : 8 бит
Тип развёртки : Прогрессивная
Бит/(Пиксели*Кадры) : 0.396
Размер потока : 14,1 Гбайт (93%)
Заголовок : CHD
Библиотека кодирования : x264 core 157 r2867+150 7e91e0e t_mod_Custom_2 [8-bit@all X86_64]
Настройки программы : cabac=1 / ref=4 / deblock=1:-3:-3 / analyse=0x3:0x133 / me=umh / subme=11 / psy=1 / fade_compensate=0.00 / psy_rd=0.90:0.10 / mixed_ref=1 / me_range=64 / chroma_me=1 / trellis=2 / 8x8dct=1 / cqm=0 / deadzone=21,11 / fast_pskip=0 / chroma_qp_offset=-4 / threads=25 / lookahead_threads=4 / sliced_threads=0 / nr=0 / decimate=1 / interlaced=0 / bluray_compat=0 / constrained_intra=0 / fgo=0 / bframes=8 / b_pyramid=2 / b_adapt=2 / b_bias=0 / direct=3 / weightb=1 / open_gop=0 / weightp=2 / keyint=250 / keyint_min=23 / scenecut=40 / intra_refresh=0 / rc_lookahead=60 / rc=crf / mbtree=0 / crf=18.0000 / qcomp=0.70 / qpmin=0:0:0 / qpmax=69:69:69 / qpstep=4 / vbv_maxrate=35000 / vbv_bufsize=35000 / crf_max=0.0 / nal_hrd=none / filler=0 / ip_ratio=1.40 / pb_ratio=1.30 / aq=3:1.00 / aq-sensitivity=10.00 / aq-factor=1.00:1.00:1.00 / aq2=0 / aq3=0
Язык : English
Default : Да
Forced : Нет
Аудио #1
Идентификатор : 2
Формат : AC-3
Формат/Информация : Audio Coding 3
Коммерческое название : Dolby Digital
Идентификатор кодека : A_AC3
Продолжительность : 2 ч. 17 м.
Вид битрейта : Постоянный
Битрейт : 384 Кбит/сек
Каналы : 6 каналов
Channel layout : L R C LFE Ls Rs
Частота : 48,0 КГц
Частота кадров : 31,250 кадров/сек (1536 SPF)
Метод сжатия : С потерями
Размер потока : 378 Мбайт (2%)
Заголовок : Dub
Язык : Russian
Service kind : Complete Main
Default : Да
Forced : Да
Аудио #2
Идентификатор : 3
Формат : AC-3
Формат/Информация : Audio Coding 3
Коммерческое название : Dolby Digital
Идентификатор кодека : A_AC3
Продолжительность : 2 ч. 17 м.
Вид битрейта : Постоянный
Битрейт : 640 Кбит/сек
Каналы : 6 каналов
Channel layout : L R C LFE Ls Rs
Частота : 48,0 КГц
Частота кадров : 31,250 кадров/сек (1536 SPF)
Метод сжатия : С потерями
Размер потока : 630 Мбайт (4%)
Заголовок : Original
Язык : English
Service kind : Complete Main
Default : Нет
Forced : Нет
Текст #1
Идентификатор : 4
Формат : UTF-8
Идентификатор кодека : S_TEXT/UTF8
Идентификатор кодека/Информация : UTF-8 Plain Text
Продолжительность : 2 ч. 6 м.
Битрейт : 1 бит/сек
Count of elements : 16
Размер потока : 1,54 Кбайт (0%)
Заголовок : Forced
Язык : Russian
Default : Да
Forced : Да
Текст #2
Идентификатор : 5
Формат : UTF-8
Идентификатор кодека : S_TEXT/UTF8
Идентификатор кодека/Информация : UTF-8 Plain Text
Продолжительность : 2 ч. 11 м.
Битрейт : 102 бит/сек
Count of elements : 1749
Размер потока : 98,6 Кбайт (0%)
Заголовок : Full
Язык : Russian
Default : Нет
Forced : Нет
Текст #3
Идентификатор : 6
Формат : UTF-8
Идентификатор кодека : S_TEXT/UTF8
Идентификатор кодека/Информация : UTF-8 Plain Text
Продолжительность : 2 ч. 16 м.
Битрейт : 81 бит/сек
Count of elements : 2433
Размер потока : 81,7 Кбайт (0%)
Заголовок : Full
Язык : English
Default : Нет
Forced : Нет
Текст #4
Идентификатор : 7
Формат : UTF-8
Идентификатор кодека : S_TEXT/UTF8
Идентификатор кодека/Информация : UTF-8 Plain Text
Продолжительность : 2 ч. 17 м.
Битрейт : 84 бит/сек
Count of elements : 2588
Размер потока : 85,2 Кбайт (0%)
Заголовок : SDH
Язык : English
Default : Нет
Forced : Нет
Меню
00:00:00.000 : en:Chapter 01
00:07:10.430 : en:Chapter 02
00:15:19.043 : en:Chapter 03
00:21:54.563 : en:Chapter 04
00:27:44.538 : en:Chapter 05
00:33:27.005 : en:Chapter 06
00:39:05.385 : en:Chapter 07
00:46:26.742 : en:Chapter 08
00:52:53.462 : en:Chapter 09
00:58:44.020 : en:Chapter 10
01:07:44.435 : en:Chapter 11
01:16:25.664 : en:Chapter 12
01:25:33.837 : en:Chapter 13
01:29:28.488 : en:Chapter 14
01:38:40.373 : en:Chapter 15
01:45:49.635 : en:Chapter 16
01:54:16.641 : en:Chapter 17
02:02:02.106 : en:Chapter 18
02:07:49.161 : en:Chapter 19
02:12:30.442 : en:Chapter 20
Скриншоты:
Все одноименные релизы в КлубеВремя раздачи: 24/7 (до 10-ти скачавших)
[Профиль] [ЛС]
Показать сообщения:    
Ответить на тему

Текущее время: 25-Фев 22:14

Часовой пояс: UTC ± 0



Вы не можете начинать темы
Вы не можете отвечать на сообщения
Вы не можете редактировать свои сообщения
Вы не можете удалять свои сообщения
Вы не можете голосовать в опросах
Вы не можете прикреплять файлы к сообщениям
Вы не можете скачивать файлы

[  Время выполнения: 0,031 сек  |  MySQL: 0,003 сек (9%) · 3 запр.  |  GZIP выкл  |  Память: 422,29 KB / 1,73 MB / 1,36 MB  |  Лимит: 13 14 16  ]