Преисподняя 2 / Underverden II / Darkland: The Return (2023) WEB-DLRip [H.264] [MVO]

Ответить на тему
 
Автор Сообщение

admin ®

Пол: Не указан

Стаж: 4 месяца 27 дня

Сообщений: 10110

Создавать темы 30-Янв-2024 17:39

[Цитировать]

Преисподняя 2 / Underverden II / Darkland: The Return (2023) WEB-DLRip - Производство: Дания / Profile Pictures
Жанр: боевик, триллер
Режиссер: Фенар Ахмад
Продюсер: Джейкоб Ярек, Marta Mleczek, Фенар Ахмад
Актеры: Дар Салим, Биргитта Йорт Сёренсен, Стине Фишер Кристенсен, Abdel Mustafa, Soheil Bavi, Ahmad Ayman, Mohamed Djeziri, Hamed «Baloosh» Balosha, Sebastian Nørgaard, Noah Carter
Описание:
Заид получает возможность досрочно выйти из тюрьмы, если он поможет полиции выведать информацию о таинственных бандах в Копенгагене. Мужчина видит в этом возможность воссоединения со своим сыном, поэтому соглашается на сотрудничество, не задумываясь о последствиях.
Релиз от: Rip by vitolinform
Продолжительность: 01:49:51
Качество видео: WEB-DLRip
Перевод: Многоголосый любительский (AlphaProject)
Язык озвучки: русский, датский
Субтитры: английские
Видео: AVC/H.264, 1024х428, ~1529 Kbps
Аудио 1: AC3, 2 ch, 192 Кbps | Русский (MVO, AlphaProject)
Аудио 2: AC3, 6 ch, 384 Кbps | Датский

MediaInfo:

raw [info]: 1024x428p 1:1 @ 25/1 fps (cfr)
x264 [info]: using SAR=1/1
x264 [info]: using cpu capabilities: MMX2 SSE2Fast SSSE3 SSE4.2 AVX FMA3 BMI2 AVX2
x264 [info]: profile High, level 4.1, 4:2:0, 8-bit
x264 [info]: frame I:1166 Avg QP:14.57 size: 41267
x264 [info]: frame P:41299 Avg QP:15.78 size: 17736
x264 [info]: frame B:122312 Avg QP:18.02 size: 3916
x264 [info]: consecutive B-frames: 1.4% 3.4% 6.7% 67.1% 7.0% 11.0% 1.2% 0.8% 0.2% 0.4% 0.7%
x264 [info]: mb I I16..4: 8.0% 79.9% 12.0%
x264 [info]: mb P I16..4: 1.1% 11.8% 0.9% P16..4: 37.1% 31.1% 14.4% 0.0% 0.0% skip: 3.7%
x264 [info]: mb B I16..4: 0.1% 0.5% 0.1% B16..8: 36.6% 12.4% 3.0% direct: 4.2% skip:43.2% L0:39.9% L1:48.1% BI:12.0%
x264 [info]: 8x8 transform intra:84.2% inter:52.4%
x264 [info]: coded y,uvDC,uvAC intra: 89.5% 81.4% 63.3% inter: 18.8% 16.8% 8.6%
x264 [info]: i16 v,h,dc,p: 39% 8% 7% 47%
x264 [info]: i8 v,h,dc,ddl,ddr,vr,hd,vl,hu: 13% 10% 13% 8% 10% 11% 11% 11% 13%
x264 [info]: i4 v,h,dc,ddl,ddr,vr,hd,vl,hu: 14% 9% 4% 9% 15% 15% 13% 11% 11%
x264 [info]: i8c dc,h,v,p: 49% 23% 17% 11%
x264 [info]: Weighted P-Frames: Y:1.9% UV:0.6%
x264 [info]: ref P L0: 50.4% 8.5% 17.3% 5.6% 4.7% 2.7% 2.8% 1.2% 1.4% 0.9% 1.1% 0.8% 0.9% 0.6% 0.8% 0.5%
x264 [info]: ref B L0: 79.3% 10.5% 3.6% 1.8% 1.1% 0.9% 0.7% 0.5% 0.3% 0.3% 0.3% 0.3% 0.2% 0.2% 0.1%
x264 [info]: ref B L1: 96.7% 3.3%
x264 [info]: kb/s:1528.86
x264 [total]: encoded 164777 frames, 7.33 fps, 1528.86 kb/s
================================================================
General
Unique ID : 154299764047342177402945774001887151302 (0x74150DB8AB1C2396F046786611F084C6)
Complete name : D:\Darkland The Return\Preispodnyaya.2.2023.WEB-DLRip.AVC.mkv
Format : Matroska
Format version : Version 4
File size : 1.62 GiB
Duration : 1 h 49 min
Overall bit rate : 2 107 kb/s
Frame rate : 25.000 FPS
Movie name : Underverden II (2023) WEB-DLRip AVC _ vitolinform
Encoded date : 2023-09-01 08:39:38 UTC
Writing application : mkvmerge v76.0 ('Celebration') 64-bit
Writing library : libebml v1.4.4 + libmatroska v1.7.1
Attachments : poster.jpg / log.log
Video
ID : 1
Format : AVC
Format/Info : Advanced Video Codec
Format profile : High@L4.1
Format settings : CABAC / 16 Ref Frames
Format settings, CABAC : Yes
Format settings, Reference frames : 16 frames
Codec ID : V_MPEG4/ISO/AVC
Duration : 1 h 49 min
Bit rate : 1 529 kb/s
Width : 1 024 pixels
Height : 428 pixels
Display aspect ratio : 2.40:1
Frame rate mode : Constant
Frame rate : 25.000 FPS
Color space : YUV
Chroma subsampling : 4:2:0
Bit depth : 8 bits
Scan type : Progressive
Bits/(Pixel*Frame) : 0.140
Stream size : 1.17 GiB (73%)
Title : Преисподняя 2 / Underverden II / Darkland: The Return (2023)
Writing library : x264 core 164 r3107 a8b68eb
Encoding settings : cabac=1 / ref=16 / deblock=1:-3:-3 / analyse=0x3:0x113 / me=umh / subme=10 / psy=1 / psy_rd=1.00:0.05 / mixed_ref=1 / me_range=32 / chroma_me=1 / trellis=2 / 8x8dct=1 / cqm=0 / deadzone=21,11 / fast_pskip=0 / chroma_qp_offset=-3 / threads=12 / lookahead_threads=5 / sliced_threads=0 / nr=0 / decimate=0 / interlaced=0 / bluray_compat=0 / constrained_intra=0 / bframes=10 / b_pyramid=2 / b_adapt=2 / b_bias=0 / direct=1 / weightb=1 / open_gop=0 / weightp=2 / keyint=240 / keyint_min=24 / scenecut=40 / intra_refresh=0 / rc_lookahead=40 / rc=crf / mbtree=0 / crf=18.0 / qcomp=0.60 / qpmin=0 / qpmax=69 / qpstep=4 / vbv_maxrate=50000 / vbv_bufsize=62500 / crf_max=0.0 / nal_hrd=none / filler=0 / ip_ratio=1.40 / pb_ratio=1.40 / aq=1:1.00
Language : Danish
Default : Yes
Forced : No
Color range : Limited
Color primaries : BT.709
Transfer characteristics : BT.709
Matrix coefficients : BT.709
Audio #1
ID : 2
Format : AC-3
Format/Info : Audio Coding 3
Commercial name : Dolby Digital
Codec ID : A_AC3
Duration : 1 h 49 min
Bit rate mode : Constant
Bit rate : 192 kb/s
Channel(s) : 2 channels
Channel layout : L R
Sampling rate : 48.0 kHz
Frame rate : 31.250 FPS (1536 SPF)
Compression mode : Lossy
Stream size : 151 MiB (9%)
Title : MVO | AlphaProject
Language : Russian
Service kind : Complete Main
Default : Yes
Forced : No
Audio #2
ID : 3
Format : AC-3
Format/Info : Audio Coding 3
Commercial name : Dolby Digital
Codec ID : A_AC3
Duration : 1 h 49 min
Bit rate mode : Constant
Bit rate : 384 kb/s
Channel(s) : 6 channels
Channel layout : L R C LFE Ls Rs
Sampling rate : 48.0 kHz
Frame rate : 31.250 FPS (1536 SPF)
Compression mode : Lossy
Stream size : 302 MiB (18%)
Title : Danish
Language : Danish
Service kind : Complete Main
Default : No
Forced : No
Text
ID : 4
Format : UTF-8
Codec ID : S_TEXT/UTF8
Codec ID/Info : UTF-8 Plain Text
Duration : 1 h 48 min
Bit rate : 28 b/s
Frame rate : 0.102 FPS
Count of elements : 663
Stream size : 22.7 KiB (0%)
Title : Full
Language : English
Default : No
Forced : No
Скриншоты:
Все одноименные релизы в КлубеВремя раздачи: как минимум до появления первых 3-5 скачавших, 24/7 (мультитрекерная раздача)
[Профиль] [ЛС]
Показать сообщения:    
Ответить на тему

Текущее время: 25-Фев 22:49

Часовой пояс: UTC ± 0



Вы не можете начинать темы
Вы не можете отвечать на сообщения
Вы не можете редактировать свои сообщения
Вы не можете удалять свои сообщения
Вы не можете голосовать в опросах
Вы не можете прикреплять файлы к сообщениям
Вы не можете скачивать файлы

[  Время выполнения: 0,034 сек  |  MySQL: 0,003 сек (9%) · 3 запр.  |  GZIP выкл  |  Память: 422,29 KB / 1,75 MB / 1,37 MB  |  Лимит: 8 8 10  ]